<?xml version="1.0" encoding="UTF-8" standalone="no"?>
<!DOCTYPE svg PUBLIC "-//W3C//DTD SVG 1.1//EN" "http://www.w3.org/Graphics/SVG/1.1/DTD/svg11.dtd">
<svg xmlns="http://www.w3.org/2000/svg">
<metadata/>
<defs>
<font id="overpasslight" horiz-adv-x="1290">
<font-face units-per-em="2048" ascent="1536" descent="-512"/>
<missing-glyph horiz-adv-x="471"/>
<glyph unicode="ﬁ" horiz-adv-x="1138" d="M20 918v129h168v178q0 63 18.5 108t49.5 73t70 40t80 12q59 0 101 -15.5t77 -33.5v-125q-33 16 -69 28.5t-81 12.5q-37 0 -58.5 -11t-30.5 -28.5t-11 -40t-2 -43.5v-155h252v-129h-252v-918h-144v918h-168zM817 1356q0 41 26.5 69.5t67.5 28.5t68 -28.5t27 -69.5 t-27 -67.5t-68 -26.5t-67.5 26.5t-26.5 67.5zM840 0v1047h143v-1047h-143z"/>
<glyph unicode="ﬂ" horiz-adv-x="1146" d="M20 918v129h168v178q0 63 18.5 108t49.5 73t70 40t80 12q59 0 101 -15.5t77 -33.5v-125q-33 16 -69 28.5t-81 12.5q-37 0 -58.5 -11t-30.5 -28.5t-11 -40t-2 -43.5v-155h252v-129h-252v-918h-144v918h-168zM840 0v1409l143 70v-1479h-143z"/>
<glyph horiz-adv-x="2048"/>
<glyph horiz-adv-x="2048"/>
<glyph unicode="" horiz-adv-x="2048"/>
<glyph unicode=" " horiz-adv-x="471"/>
<glyph unicode="	" horiz-adv-x="471"/>
<glyph unicode=" " horiz-adv-x="471"/>
<glyph unicode="!" horiz-adv-x="491" d="M117 100q0 49 36.5 89t92.5 40q55 0 92 -39.5t37 -89.5q0 -49 -37 -89t-92 -40t-92 40t-37 89zM176 1014v444h148v-444l-64 -619h-22z"/>
<glyph unicode="&quot;" horiz-adv-x="727" d="M92 1434h178l-37 -547h-108zM455 1434h180l-37 -547h-109z"/>
<glyph unicode="#" horiz-adv-x="1341" d="M86 418l25 129h245l62 364h-242l21 125h233l86 398h119l-64 -398h289l62 398h141l-62 -398h254l-20 -125h-250l-61 -364h241l-20 -129h-238l-65 -418h-140l64 418h-289l-65 -418h-138l66 418h-254zM494 547h288l62 364h-289z"/>
<glyph unicode="$" horiz-adv-x="1150" d="M102 266l136 49q43 -94 132 -150t212 -56q141 0 221 65.5t80 194.5q0 63 -27 115.5t-72 92t-102 70.5t-121 55q-76 29 -150.5 65t-135 85t-97.5 115.5t-37 156.5q0 61 23.5 117.5t70 100.5t113 74t152.5 38v162h145v-164q125 -16 208 -75.5t110 -145.5l-134 -45 q-27 57 -95 98t-177 41q-127 0 -196.5 -53t-69.5 -146q0 -55 27.5 -98t72.5 -76.5t104.5 -60.5t122.5 -51q74 -29 148 -67t133 -93t96 -130t37 -177q0 -88 -28.5 -158t-79 -119t-122 -78.5t-157.5 -37.5v-181h-145v183q-152 18 -255.5 99t-142.5 185z"/>
<glyph unicode="%" horiz-adv-x="1759" d="M90 1094q0 57 16.5 121.5t55.5 117.5t99.5 89t150.5 36q88 0 149.5 -32.5t99 -85t55 -117t17.5 -129.5q0 -59 -16.5 -124t-54 -118t-99 -88t-151.5 -35q-88 0 -149.5 33t-99.5 85t-55.5 116.5t-17.5 130.5zM223 1094q0 -106 45.5 -176t143.5 -70q47 0 82.5 19.5t59.5 53 t35 78.5t11 95q0 111 -47 178t-141 67q-49 0 -85 -19.5t-58.5 -53t-34 -78.5t-11.5 -94zM315 -25l979 1483h148l-979 -1483h-148zM1024 340q0 57 16.5 121.5t55.5 118t99 89.5t151 36q88 0 149 -33t99 -85t55.5 -116.5t17.5 -130.5q0 -59 -16.5 -123.5t-54 -118t-99 -88.5 t-151.5 -35q-88 0 -149.5 33t-99.5 85t-55.5 116.5t-17.5 130.5zM1157 340q0 -106 45.5 -176t143.5 -70q47 0 82.5 19.5t59 53.5t35 79t11.5 94q0 111 -47 178.5t-141 67.5q-49 0 -85 -19.5t-58.5 -53.5t-34 -79t-11.5 -94z"/>
<glyph unicode="&amp;" horiz-adv-x="1275" d="M66 360q0 78 24.5 140.5t70.5 117t108.5 100.5t140.5 89q-47 57 -81 104t-56.5 88t-33 79t-10.5 79q0 70 27 126t72 95t106.5 59.5t132.5 20.5q70 0 129.5 -22.5t102.5 -63.5t67.5 -96t24.5 -123q0 -115 -76 -202t-207 -167l312 -372q35 72 52 137t21 104h135 q-6 -72 -29.5 -161t-84.5 -191l252 -301h-179l-157 186q-96 -104 -219 -157.5t-246 -53.5q-90 0 -164 28t-126 78t-80.5 120.5t-28.5 158.5zM201 373q0 -123 82 -196t211 -73q88 0 180 49.5t166 139.5l-353 420q-141 -86 -213.5 -164t-72.5 -176zM365 1155q0 -55 44 -119.5 t123 -161.5q223 131 224 265q0 90 -57.5 141t-139.5 51q-88 0 -141 -48t-53 -128z"/>
<glyph unicode="'" horiz-adv-x="362" d="M92 1434h178l-37 -547h-108z"/>
<glyph unicode="(" horiz-adv-x="634" d="M143 582q0 162 23.5 297t61.5 242.5t87.5 191.5t100.5 145h137q-27 -33 -72 -109.5t-89 -189t-75.5 -259t-31.5 -318.5q0 -176 29.5 -317.5t70.5 -249t82 -178t63 -103.5h-137q-47 61 -92 140t-80 182.5t-56.5 232.5t-21.5 293z"/>
<glyph unicode=")" horiz-adv-x="634" d="M82 1458h137q51 -61 100.5 -145t87 -191.5t61.5 -243t24 -296.5q0 -164 -21.5 -293t-56.5 -232.5t-80 -182.5t-92 -140h-138q23 33 64 103.5t82 178t70.5 249t29.5 317.5q0 172 -31.5 318.5t-75.5 259t-89 189t-72 109.5z"/>
<glyph unicode="*" horiz-adv-x="1034" d="M88 1079l47 135l199 -65l145 -100l-33 170v229h142v-229l-37 -170l145 100l203 65l47 -135l-213 -69l-158 -11l127 -114l129 -180l-112 -89l-139 189l-66 164l-63 -164l-136 -189l-114 89l131 180l119 114l-154 11z"/>
<glyph unicode="+" d="M164 631v139h405v414h148v-414h409v-139h-409v-410h-148v410h-405z"/>
<glyph unicode="," horiz-adv-x="401" d="M72 88q0 63 36.5 99t88.5 36q27 0 53 -10t46.5 -30.5t34 -53.5t13.5 -78q0 -117 -53 -204t-133 -136l-39 10q14 12 31.5 34t33 52.5t26.5 69.5t11 84q-66 0 -107.5 36t-41.5 91z"/>
<glyph unicode="-" horiz-adv-x="763" d="M154 541v139h456v-139h-456z"/>
<glyph unicode="." horiz-adv-x="401" d="M72 100q0 49 36.5 89t92.5 40q55 0 92 -39.5t37 -89.5q0 -49 -37 -89t-92 -40t-92 40t-37 89z"/>
<glyph unicode="/" horiz-adv-x="933" d="M-31 -266l805 1724h139l-804 -1724h-140z"/>
<glyph unicode="0" horiz-adv-x="1208" d="M113 717q0 74 8 159t29.5 166.5t57.5 157.5t91 133.5t130 91t175 33.5q141 0 235.5 -66.5t151 -173t81 -238.5t24.5 -263q0 -76 -9.5 -160t-31 -167t-57 -157.5t-91 -132t-130.5 -91.5t-173 -34q-141 0 -235.5 65.5t-150.5 171t-80.5 238t-24.5 267.5zM262 717 q0 -113 14.5 -222.5t53.5 -196.5t105.5 -140.5t168.5 -53.5q106 0 173 58.5t104 148.5t49 198.5t12 207.5q0 111 -14.5 220.5t-53 196.5t-104 141t-166.5 54q-109 0 -175.5 -59.5t-103 -149.5t-50 -197.5t-13.5 -205.5z"/>
<glyph unicode="1" horiz-adv-x="622" d="M51 1174v81q109 0 184.5 38t110.5 141h92v-1434h-143v1174h-244z"/>
<glyph unicode="2" horiz-adv-x="1167" d="M115 0v39q2 143 60 247.5t145.5 183.5t186.5 143.5t185 129t143.5 138t57.5 174.5q0 117 -81 195.5t-230 78.5q-145 0 -219 -64.5t-101 -166.5l-127 57q16 63 55 118.5t98.5 96.5t136.5 64.5t169 23.5q213 0 330.5 -109.5t117.5 -293.5q0 -119 -52 -205t-133 -154.5 t-176 -127t-182 -121t-152.5 -137t-84.5 -173.5h793v-137h-940z"/>
<glyph unicode="3" horiz-adv-x="1146" d="M72 311l133 56q53 -133 134 -195.5t208 -62.5q68 0 129 17t107 52t73 87t27 124q0 133 -82 212t-238 79h-96v131h76q129 0 205.5 70.5t76.5 189.5q0 59 -21.5 106.5t-58 80t-85 50t-99.5 17.5q-68 0 -120 -20.5t-91 -53t-64.5 -71.5t-41.5 -76l-133 51q23 57 60.5 111.5 t92.5 97.5t128 68.5t163 25.5q88 0 165 -26.5t134 -73.5t89 -115.5t32 -150.5q0 -96 -48 -181.5t-134 -132.5q113 -45 177 -144t64 -241q0 -90 -39 -166.5t-106.5 -132t-155.5 -87.5t-186 -32q-104 0 -182 26t-134.5 72t-94.5 106.5t-64 131.5z"/>
<glyph unicode="4" horiz-adv-x="1140" d="M31 387v76l753 971h86v-924h217v-123h-217v-387h-143v387h-696zM217 510h510v676z"/>
<glyph unicode="5" horiz-adv-x="1224" d="M113 158l84 104q35 -35 73.5 -64.5t84.5 -52t102.5 -35t128.5 -12.5q80 0 148.5 29t118.5 76t79 110.5t29 132.5q0 70 -24 133.5t-66 109.5t-101 74t-131 28q-66 0 -120 -13.5t-98 -33t-77 -44t-53 -47.5l-121 37l117 744h729v-129h-615l-82 -500q66 59 153 90t177 31 q94 0 179 -34t147.5 -94.5t99.5 -145.5t37 -187q0 -90 -35 -178t-101.5 -157t-163.5 -112t-220 -43q-86 0 -162 16.5t-137.5 42t-107.5 58.5t-72 66z"/>
<glyph unicode="6" horiz-adv-x="1138" d="M92 530q0 154 56.5 302.5t154.5 274.5t232.5 219t289.5 132v-112q-102 -31 -195 -92.5t-168 -141.5t-126 -171t-68 -183q53 63 138.5 97t195.5 34q88 0 166 -38t135.5 -99.5t90 -140.5t32.5 -160q0 -100 -37 -187.5t-99.5 -151t-145.5 -100.5t-177 -37q-117 0 -206 43 t-149 118t-90 176.5t-30 217.5zM233 430q0 -70 26 -129t70 -103t103.5 -69t128.5 -25q74 0 134.5 25t103.5 69t66.5 103t23.5 129q0 72 -22.5 133.5t-65.5 105.5t-103.5 68.5t-136.5 24.5q-72 0 -132 -24.5t-103 -68.5t-68 -105.5t-25 -133.5z"/>
<glyph unicode="7" horiz-adv-x="960" d="M51 1311v123h858v-95q-150 -172 -239.5 -353t-139 -356t-65.5 -337t-16 -293h-144q2 168 21.5 332t69.5 325.5t134 324.5t215 329h-694z"/>
<glyph unicode="8" horiz-adv-x="1163" d="M113 403q0 63 18.5 125t50 114t77.5 91t101 60q-43 18 -76.5 51t-57 72.5t-36 83.5t-12.5 87q0 74 31 141.5t84 119t128 81t161 29.5t160.5 -29.5t128 -81t84 -119t30.5 -141.5q0 -43 -13.5 -87t-39 -83.5t-62 -72.5t-82.5 -51q57 -23 105.5 -62t83.5 -90t54.5 -112.5 t19.5 -125.5q0 -90 -35 -168.5t-98.5 -136t-149.5 -90.5t-186 -33q-102 0 -187.5 33t-149 90.5t-98 136t-34.5 168.5zM262 424q0 -76 24.5 -135.5t67.5 -100.5t101.5 -62.5t126.5 -21.5t126 21.5t101 62.5t67.5 100.5t24.5 135.5q0 63 -22.5 120.5t-64.5 101.5t-101.5 69.5 t-130.5 25.5q-72 0 -131.5 -25.5t-101.5 -69.5t-64.5 -101.5t-22.5 -120.5zM324 1069q0 -102 69.5 -167.5t188.5 -65.5t188.5 65.5t69.5 167.5q0 121 -74 190.5t-184 69.5q-111 0 -184.5 -69.5t-73.5 -190.5z"/>
<glyph unicode="9" horiz-adv-x="1138" d="M92 983q0 100 37 187t101.5 150.5t150.5 100.5t186 37q117 0 203 -43t142.5 -117.5t85 -176t28.5 -218.5q0 -154 -52 -303t-145.5 -275t-222.5 -218.5t-284 -131.5v113q104 31 194 93.5t161 144.5t117 176t58 186q-53 -68 -140 -103.5t-200 -35.5q-88 0 -165 34.5 t-133 95t-89 139.5t-33 165zM229 999q0 -72 22.5 -133t65.5 -106t103.5 -70.5t136.5 -25.5q72 0 132.5 25.5t103.5 70.5t67.5 106.5t24.5 132.5q0 70 -25.5 129.5t-70 104.5t-103.5 70.5t-129 25.5q-74 0 -134.5 -25.5t-103.5 -70.5t-66.5 -104.5t-23.5 -129.5z"/>
<glyph unicode=":" horiz-adv-x="401" d="M72 100q0 49 36.5 89t92.5 40q55 0 92 -39.5t37 -89.5q0 -49 -37 -89t-92 -40t-92 40t-37 89zM72 860q0 49 36.5 89t92.5 40q55 0 92 -40t37 -89t-37 -89t-92 -40t-92 40t-37 89z"/>
<glyph unicode=";" horiz-adv-x="401" d="M72 88q0 63 36.5 99t88.5 36q27 0 53 -10t46.5 -30.5t34 -53.5t13.5 -78q0 -117 -53 -204t-133 -136l-39 10q29 25 60.5 87.5t31.5 154.5q-57 0 -98 35t-41 90zM72 860q0 49 36.5 89t92.5 40q55 0 92 -40t37 -89t-37 -89t-92 -40t-92 40t-37 89z"/>
<glyph unicode="&lt;" d="M164 633v135l962 389v-137l-804 -318l804 -317v-139z"/>
<glyph unicode="=" d="M164 469v137h962v-137h-962zM164 795v137h962v-137h-962z"/>
<glyph unicode="&gt;" d="M164 246v135l805 321l-805 318v137l962 -389v-135z"/>
<glyph unicode="?" horiz-adv-x="1015" d="M41 999q0 102 35 187.5t97.5 146t149.5 93t189 32.5q104 0 185 -29.5t135.5 -81t83 -120t28.5 -146.5q0 -92 -28.5 -154.5t-71.5 -109.5t-92.5 -88t-92.5 -87t-71.5 -106.5t-28.5 -146.5h-147q0 100 28.5 171t71.5 123t92 94t92 86t72 96.5t29 125.5q0 98 -73 169 t-212 71q-154 0 -240 -85t-86 -241h-145zM352 100q0 49 37 89t92 40t92 -39.5t37 -89.5q0 -49 -37 -89t-92 -40t-92 40t-37 89z"/>
<glyph unicode="@" horiz-adv-x="1574" d="M72 686q0 170 61.5 312.5t164.5 245t239.5 158.5t287.5 56q150 0 275 -44t214 -125t139 -193.5t50 -249.5q0 -113 -26.5 -208t-71.5 -163.5t-106.5 -107.5t-131.5 -39q-86 0 -134 42t-62 113q-41 -76 -110.5 -125t-149.5 -49q-63 0 -118.5 26.5t-95.5 73t-62.5 111 t-22.5 139.5q0 74 25.5 150t74.5 137.5t119.5 99t159.5 37.5q39 0 76.5 -13t69.5 -38.5t54.5 -62.5t30.5 -82l29 170h129l-82 -475q-2 -10 -2 -19.5v-17.5q0 -49 24.5 -77t67.5 -28t77.5 31t60.5 86t40 131t14 166q0 119 -43 208t-117.5 148.5t-175 90t-213.5 30.5 q-147 0 -262.5 -49t-195.5 -135t-123 -205t-43 -258q0 -121 40 -226.5t114.5 -184t184 -125t249.5 -46.5q74 0 155.5 10.5t136.5 28.5l-30 -135q-55 -16 -126 -23.5t-145 -7.5q-147 0 -278 47.5t-227.5 138.5t-152.5 223t-56 302zM559 657q0 -104 50 -163.5t134 -59.5 q51 0 94.5 23.5t74 65.5t48 96.5t17.5 115.5q0 102 -53 162.5t-125 60.5q-57 0 -101.5 -24.5t-75 -65.5t-47 -95t-16.5 -116z"/>
<glyph unicode="A" horiz-adv-x="1294" d="M92 0l498 1434h110l502 -1434h-145l-131 371h-559l-125 -371h-150zM410 498h473l-238 690z"/>
<glyph unicode="B" horiz-adv-x="1261" d="M184 0v1434h475q125 0 210 -33t135.5 -85t72 -120t21.5 -137q0 -111 -61.5 -187.5t-164.5 -115.5q117 -29 197 -118t80 -237q0 -74 -21.5 -145.5t-75 -127.5t-141.5 -92t-219 -36h-508zM328 129h389q88 0 146.5 22.5t92 58.5t47 83t13.5 96q0 57 -16.5 109.5t-57.5 93.5 t-111.5 65.5t-181.5 24.5h-321v-553zM328 807h297q170 0 255 69.5t85 186.5q0 43 -12.5 87t-44 78t-89 55.5t-147.5 21.5h-344v-498z"/>
<glyph unicode="C" horiz-adv-x="1257" d="M113 717q0 147 34.5 281.5t107.5 236.5t184.5 162.5t267.5 60.5q96 0 166.5 -19.5t122 -52t87 -74.5t62.5 -85l-127 -74q-25 35 -52.5 66.5t-64.5 56t-85 39t-109 14.5q-123 0 -208 -55t-137.5 -143.5t-76 -198t-23.5 -215.5q0 -119 25.5 -229.5t79 -195.5t138.5 -136.5 t202 -51.5q129 0 205.5 50.5t125.5 132.5l127 -49q-25 -49 -64.5 -96.5t-96 -84.5t-131 -59.5t-166.5 -22.5q-160 0 -272.5 63.5t-184.5 167t-104.5 236.5t-32.5 275z"/>
<glyph unicode="D" horiz-adv-x="1327" d="M184 0v1434h381q182 0 306 -62.5t201 -164t109.5 -229.5t32.5 -261q0 -123 -29.5 -251t-105 -231.5t-202.5 -169t-320 -65.5h-373zM328 129h239q143 0 239.5 52t154 137t81 189.5t23.5 209.5q0 111 -26.5 217t-84 188t-147.5 132.5t-217 50.5h-262v-1176z"/>
<glyph unicode="E" horiz-adv-x="1159" d="M184 0v1434h817v-138h-673v-487h454v-135h-454v-537h719v-137h-863z"/>
<glyph unicode="F" horiz-adv-x="1093" d="M184 0v1434h838v-138h-694v-487h469v-135h-469v-674h-144z"/>
<glyph unicode="G" horiz-adv-x="1341" d="M113 717q0 147 34.5 281.5t107.5 236.5t184.5 162.5t267.5 60.5q96 0 166.5 -19.5t122 -52t87 -74.5t62.5 -85l-127 -74q-25 35 -52.5 66.5t-64.5 56t-85 39t-109 14.5q-123 0 -208 -55t-137.5 -143.5t-76 -198t-23.5 -215.5q0 -119 25.5 -229.5t79 -195.5t138.5 -136.5 t202 -51.5q158 0 249 96.5t91 260.5v86h-265v127h416v-158q0 -133 -38 -233.5t-104.5 -169t-155.5 -103.5t-193 -35q-160 0 -272.5 63.5t-184.5 167t-104.5 236.5t-32.5 275z"/>
<glyph unicode="H" horiz-adv-x="1355" d="M184 0v1434h144v-621h700v621h143v-1434h-143v678h-700v-678h-144z"/>
<glyph unicode="I" horiz-adv-x="512" d="M184 0v1434h144v-1434h-144z"/>
<glyph unicode="J" horiz-adv-x="1036" d="M51 219l113 62q23 -43 43 -76t48 -55.5t69 -34t106 -11.5q49 0 99.5 13.5t90 49.5t64.5 96.5t25 154.5v1016h143v-973q0 -147 -41 -241.5t-103.5 -149t-138 -75t-145.5 -20.5q-156 0 -241 64.5t-132 179.5z"/>
<glyph unicode="K" horiz-adv-x="1255" d="M184 0v1434h144v-713l567 713h156l-392 -488l515 -946h-162l-451 825l-233 -290v-535h-144z"/>
<glyph unicode="L" horiz-adv-x="1089" d="M184 0v1434h144v-1297h710v-137h-854z"/>
<glyph unicode="M" horiz-adv-x="1581" d="M184 0v1434h123l479 -1117l486 1117h125v-1434h-144v1061l-479 -1086l-446 1080v-1055h-144z"/>
<glyph unicode="N" horiz-adv-x="1382" d="M184 0v1434h146l725 -1182v1182h143v-1434h-145l-725 1165v-1165h-144z"/>
<glyph unicode="O" horiz-adv-x="1413" d="M113 717q0 133 30.5 265t100 238.5t183.5 172t280 65.5t279.5 -65.5t183 -172t100 -238.5t30.5 -265t-30.5 -265.5t-100 -239t-183.5 -172t-279 -65.5q-166 0 -280 65.5t-183.5 172t-100 239t-30.5 265.5zM262 717q0 -117 23.5 -227.5t76 -195.5t137.5 -137.5t208 -52.5 t207.5 55.5t137 143.5t76 197.5t23.5 216.5q0 117 -23.5 227.5t-76 195.5t-137.5 137t-207 52q-123 0 -208 -55t-137.5 -143.5t-76 -198t-23.5 -215.5z"/>
<glyph unicode="P" horiz-adv-x="1212" d="M184 0v1434h525q129 0 215 -37t139 -96.5t75.5 -135t22.5 -153.5q0 -72 -24.5 -146.5t-77.5 -135t-140.5 -99.5t-209.5 -39h-381v-592h-144zM328 721h393q84 0 142.5 26.5t94 67.5t51 93.5t15.5 103.5q0 47 -13.5 98t-48 94t-93 72t-148.5 29h-393v-584z"/>
<glyph unicode="Q" horiz-adv-x="1413" d="M113 717q0 133 30.5 265t100 238.5t183.5 172t280 65.5t279.5 -65.5t183 -172t100 -238.5t30.5 -265q0 -84 -11 -168t-36.5 -162t-66.5 -147.5t-99 -122.5l119 -176l-98 -74l-119 176q-59 -33 -127.5 -50.5t-154.5 -17.5q-166 0 -280 65.5t-183.5 172t-100 239 t-30.5 265.5zM262 717q0 -117 23.5 -227.5t76 -195.5t137.5 -137.5t208 -52.5q117 0 204 54l-96 143l103 74l90 -135q78 92 110.5 220t32.5 257q0 117 -23.5 227.5t-76 195.5t-137.5 137t-207 52q-123 0 -208 -55t-137.5 -143.5t-76 -198t-23.5 -215.5z"/>
<glyph unicode="R" horiz-adv-x="1286" d="M184 0v1434h527q127 0 212 -35t136 -90.5t72.5 -126t21.5 -142.5q0 -66 -18.5 -129t-60.5 -117.5t-109.5 -93t-165.5 -53.5l317 -647h-158l-307 641h-323v-641h-144zM328 770h387q84 0 141 23.5t93 60.5t51.5 84t15.5 96q0 43 -14.5 90t-48 87t-92 67t-146.5 27h-387 v-535z"/>
<glyph unicode="S" horiz-adv-x="1155" d="M102 266l136 49q43 -94 132 -150t212 -56q141 0 221 65.5t80 194.5q0 63 -27 115.5t-72 92t-102 70.5t-121 55q-76 29 -150.5 65t-135 85t-97.5 115.5t-37 156.5q0 68 29 129.5t83 106.5t132 71.5t178 26.5q158 0 264.5 -64.5t135.5 -162.5l-134 -45q-27 57 -95 98 t-177 41q-127 0 -196.5 -53t-69.5 -146q0 -55 27.5 -98t72.5 -76.5t104.5 -60.5t122.5 -51q74 -29 148 -67t133 -93t96 -130t37 -177q0 -96 -33.5 -170t-93 -124t-143.5 -77t-182 -27q-90 0 -168 24t-139.5 63.5t-105.5 92t-65 111.5z"/>
<glyph unicode="T" horiz-adv-x="1116" d="M92 1296v138h932v-138h-395v-1296h-144v1296h-393z"/>
<glyph unicode="U" horiz-adv-x="1331" d="M174 532v902h143v-902q0 -129 29 -211.5t77 -131t110.5 -67t132.5 -18.5t132 18.5t110 67t77 131t29 211.5v902h143v-902q0 -150 -33.5 -255t-97 -172.5t-154.5 -98.5t-206 -31t-206 31t-154.5 98.5t-97.5 173t-34 254.5z"/>
<glyph unicode="V" horiz-adv-x="1249" d="M82 1434h151l400 -1198l381 1198h153l-489 -1434h-105z"/>
<glyph unicode="W" horiz-adv-x="1632" d="M82 1434h151l199 -1125l322 1125h106l309 -1100l232 1100h149l-311 -1434h-90l-344 1151l-348 -1151h-99z"/>
<glyph unicode="X" horiz-adv-x="1089" d="M59 0l412 739l-381 695h156l301 -553l295 553h149l-379 -672l420 -762h-153l-342 623l-326 -623h-152z"/>
<glyph unicode="Y" horiz-adv-x="1200" d="M61 1434h158l381 -738l391 738h148l-465 -865v-569h-144v563z"/>
<glyph unicode="Z" horiz-adv-x="1243" d="M113 0v100l835 1198h-788v136h970v-105l-825 -1194h825v-135h-1017z"/>
<glyph unicode="[" horiz-adv-x="714" d="M205 -266v1724h428v-129h-285v-1466h285v-129h-428z"/>
<glyph unicode="\" horiz-adv-x="933" d="M-31 1458h140l804 -1724h-139z"/>
<glyph unicode="]" horiz-adv-x="714" d="M82 -137h285v1466h-285v129h428v-1724h-428v129z"/>
<glyph unicode="^" d="M174 741l391 717h156l395 -717h-147l-324 539l-323 -539h-148z"/>
<glyph unicode="_" horiz-adv-x="1024" d="M-10 -205h1044v-157h-1044v157z"/>
<glyph unicode="`" horiz-adv-x="624" d="M-16 1499h219l291 -319h-146z"/>
<glyph unicode="a" horiz-adv-x="1001" d="M92 330q0 90 32 155.5t84 107.5t121.5 62.5t143.5 20.5q66 0 135.5 -16.5t147.5 -57.5v88q0 80 -19.5 129t-51.5 78t-74 39t-85 10q-39 0 -82 -10t-84 -26.5t-78.5 -36t-66.5 -39.5l-41 122q63 41 160.5 78t206.5 37q55 0 116.5 -15.5t112.5 -55t85 -110.5t34 -181v-709 h-133v102q-63 -57 -142 -92t-165 -35q-158 0 -257.5 89.5t-99.5 265.5zM225 330q0 -104 61.5 -167t176.5 -63q47 0 90 14.5t80 37t67.5 52t55.5 58.5v203q-51 35 -126 60.5t-143 25.5q-53 0 -100 -13.5t-83 -41t-57.5 -68.5t-21.5 -98z"/>
<glyph unicode="b" horiz-adv-x="1089" d="M154 0v1407l143 72v-535q51 55 126 91t152 36q98 0 178.5 -37t136.5 -107.5t87 -172t31 -230.5q0 -268 -110.5 -408.5t-309.5 -140.5q-55 0 -98.5 10.5t-77 28t-62 38t-53.5 42.5v-94h-143zM297 268q43 -74 116.5 -119t151.5 -45q147 0 220 113t73 307q0 203 -72.5 310.5 t-220.5 107.5q-49 0 -91 -15.5t-77 -39t-60.5 -52t-39.5 -53.5v-514z"/>
<glyph unicode="c" horiz-adv-x="923" d="M82 522q0 260 113.5 404.5t316.5 144.5q117 0 205 -56.5t131 -162.5l-131 -51q-25 59 -75 100t-136 41q-74 0 -125 -29.5t-85 -84t-49.5 -132.5t-15.5 -174q0 -199 65.5 -308.5t205.5 -109.5q86 0 145.5 43t85.5 117l129 -49q-37 -111 -134 -175.5t-232 -64.5 q-190 0 -302 142.5t-112 404.5z"/>
<glyph unicode="d" horiz-adv-x="1089" d="M82 524q0 260 115.5 403.5t316.5 143.5q98 0 164.5 -29.5t114.5 -68.5v434l143 72v-1479h-143v90q-47 -47 -114 -81t-165 -34q-100 0 -180 39t-136.5 111t-86 173t-29.5 226zM231 524q0 -88 20.5 -164.5t59.5 -133t94 -89.5t125 -33q78 0 149 43t114 121v523 q-16 27 -41 53t-56.5 47.5t-73.5 36t-92 14.5q-145 0 -222 -107.5t-77 -310.5z"/>
<glyph unicode="e" horiz-adv-x="1021" d="M82 524q0 131 34 232.5t93 171t143 106.5t185 37q84 0 158.5 -29.5t132 -91t90 -158t32.5 -227.5v-40.5t-4 -59.5h-713q18 -160 96.5 -258t213.5 -98q57 0 116.5 18t118.5 63l78 -96q-61 -51 -144 -85t-175 -34q-106 0 -190.5 44t-143 120t-90 175.5t-31.5 209.5z M229 594h576q0 106 -26.5 174t-66.5 106.5t-87 53t-88 14.5q-127 0 -212 -84t-96 -264z"/>
<glyph unicode="f" horiz-adv-x="604" d="M20 918v129h168v178q0 63 18.5 108t49.5 73t70 40t80 12q59 0 101 -15.5t77 -33.5v-125q-33 16 -69 28.5t-81 12.5q-37 0 -58.5 -11t-30.5 -28.5t-11 -40t-2 -43.5v-155h252v-129h-252v-918h-144v918h-168z"/>
<glyph unicode="g" horiz-adv-x="1093" d="M82 524q0 129 31.5 230.5t90 172t138.5 107.5t176 37q59 0 105.5 -13.5t80 -32.5t57 -40.5t36.5 -36.5v99h143v-1031q0 -129 -41 -214t-108.5 -137t-156.5 -74.5t-185 -26.5l-66 112q127 6 208 32t127 64t62.5 86t16.5 101v160q-45 -66 -112 -105t-175 -39q-84 0 -162 35 t-137 103.5t-94 171t-35 239.5zM231 524q0 -100 24 -178t65.5 -132t98 -82t124.5 -28q66 0 138.5 46.5t115.5 128.5v503q-23 39 -54.5 69t-66.5 50.5t-70 30.5t-63 10q-156 0 -234 -107.5t-78 -310.5z"/>
<glyph unicode="h" horiz-adv-x="1085" d="M154 0v1411l143 68v-549q47 72 116.5 106.5t153.5 34.5q193 0 284 -115.5t91 -375.5v-580h-143v639q0 166 -70 234.5t-174 68.5q-55 0 -102 -14.5t-82 -49t-54.5 -92t-19.5 -143.5v-643h-143z"/>
<glyph unicode="i" horiz-adv-x="454" d="M133 1356q0 41 26.5 69.5t67.5 28.5t68 -28.5t27 -69.5t-27 -67.5t-68 -26.5t-67.5 26.5t-26.5 67.5zM156 0v1047h143v-1047h-143z"/>
<glyph unicode="j" horiz-adv-x="466" d="M-92 -324q74 6 123 24.5t76.5 45.5t39 60.5t11.5 70.5v1170h143v-1113q0 -104 -28.5 -173.5t-74.5 -111.5t-104.5 -61.5t-120.5 -23.5zM135 1356q0 41 26.5 69.5t67.5 28.5t68 -28.5t27 -69.5t-27 -67.5t-68 -26.5t-67.5 26.5t-26.5 67.5z"/>
<glyph unicode="k" horiz-adv-x="985" d="M154 0v1409l143 70v-840l377 408h160l-263 -279l404 -768h-172l-332 664l-174 -187v-477h-143z"/>
<glyph unicode="l" horiz-adv-x="471" d="M164 0v1409l143 70v-1479h-143z"/>
<glyph unicode="m" horiz-adv-x="1665" d="M154 0v1047h143v-103q109 127 285 127q84 0 160.5 -42t121.5 -118q43 66 120 113t179 47q76 0 141.5 -26.5t113.5 -74.5t76 -118t28 -156v-696h-144v641q0 49 -8 102.5t-31.5 97.5t-68.5 72.5t-119 28.5q-59 0 -104.5 -24.5t-76 -65.5t-46 -95.5t-15.5 -115.5v-641h-143 v641q0 49 -8 102.5t-32 97.5t-69 72.5t-118 28.5q-61 0 -106.5 -21.5t-75 -60.5t-45 -90t-15.5 -113v-657h-143z"/>
<glyph unicode="n" horiz-adv-x="1085" d="M154 0v1047h143v-115q49 72 117.5 105.5t152.5 33.5q193 0 284 -115.5t91 -375.5v-580h-143v639q0 166 -70 234.5t-174 68.5q-55 0 -102 -14.5t-82 -49t-54.5 -92t-19.5 -143.5v-643h-143z"/>
<glyph unicode="o" horiz-adv-x="1060" d="M82 522q0 129 32.5 230.5t91 172t141.5 108.5t183 38t183.5 -37t141.5 -106.5t91 -171t33 -232.5q0 -129 -33 -231.5t-91 -173t-141 -107.5t-184 -37q-100 0 -183 37t-141.5 106.5t-91 171t-32.5 232.5zM231 522q0 -197 76 -307.5t223 -110.5q143 0 221 111t78 309 q0 197 -75.5 307.5t-223.5 110.5q-147 0 -223 -107.5t-76 -312.5z"/>
<glyph unicode="p" horiz-adv-x="1097" d="M154 -416v1463h143v-95q51 47 115.5 83t171.5 36q100 0 180 -39t136 -110.5t86 -173t30 -224.5q0 -131 -32 -233.5t-89 -172t-137 -106.5t-174 -37q-111 0 -176.5 39t-110.5 92v-450zM297 266q53 -70 118.5 -116t151.5 -46q143 0 221 107.5t78 312.5q0 193 -78.5 305.5 t-220.5 112.5q-86 0 -156.5 -42t-113.5 -120v-514z"/>
<glyph unicode="q" horiz-adv-x="1093" d="M82 522q0 123 28.5 224.5t83 174t132 111.5t178.5 39q51 0 94 -11t78 -27.5t64.5 -38t56.5 -42.5v95h143v-1391l-143 -66v516q-53 -59 -117 -95t-162 -36q-201 0 -318.5 142.5t-117.5 404.5zM231 522q0 -205 75 -311.5t218 -106.5q49 0 90 16.5t75 41t60.5 54.5t47.5 54 v510q-47 86 -121 124t-152 38q-70 0 -124 -32.5t-92 -90t-57.5 -133.5t-19.5 -164z"/>
<glyph unicode="r" horiz-adv-x="729" d="M154 0v1047h143v-148q57 86 133 129t148 43q78 0 131 -43l-23 -139q-20 12 -52 25.5t-83 13.5q-35 0 -79 -16.5t-83 -55.5t-65.5 -103.5t-26.5 -160.5v-592h-143z"/>
<glyph unicode="s" horiz-adv-x="886" d="M88 158l100 88q47 -57 119 -100.5t154 -43.5q86 0 145.5 39t59.5 113q0 47 -22.5 83t-59.5 62.5t-84 48t-94 39.5q-61 25 -119 53.5t-101 65.5t-68.5 85t-25.5 114q0 59 25.5 108.5t69.5 84t106.5 54t136.5 19.5q106 0 191.5 -42t148.5 -118l-94 -80q-41 41 -102.5 77 t-147.5 36q-92 0 -145.5 -37t-53.5 -100q0 -41 20.5 -69.5t53.5 -52t76 -42t90 -37.5q57 -23 117.5 -50.5t107.5 -66t78 -93t31 -134.5q0 -131 -94.5 -209t-257.5 -78q-106 0 -200.5 52.5t-160.5 130.5z"/>
<glyph unicode="t" horiz-adv-x="694" d="M31 918v129h178v360l143 72v-432h266v-129h-266v-642q0 -35 3 -64.5t15.5 -52t35 -35.5t59.5 -13q53 0 91 20.5t67 40.5l-17 -149q-41 -23 -86 -35.5t-104 -12.5q-113 0 -160 69t-47 171v703h-178z"/>
<glyph unicode="u" horiz-adv-x="1085" d="M143 463v584h144v-639q0 -164 68.5 -234t172.5 -70q55 0 102.5 14.5t83.5 49.5t55 92t19 143v644h144v-1047h-144v100q-55 -72 -116.5 -98.5t-143.5 -26.5q-203 0 -294 115t-91 373z"/>
<glyph unicode="v" horiz-adv-x="968" d="M51 1047h148l290 -818l285 818h144l-383 -1047h-101z"/>
<glyph unicode="w" horiz-adv-x="1380" d="M51 1047h144l196 -863l250 863h98l254 -873l193 873h143l-258 -1047h-129l-254 768l-248 -768h-131z"/>
<glyph unicode="x" horiz-adv-x="966" d="M51 0l352 537l-327 510h164l258 -400l237 400h152l-322 -504l350 -543h-163l-277 428l-270 -428h-154z"/>
<glyph unicode="y" horiz-adv-x="985" d="M31 1047h145l299 -844l305 844h154l-535 -1444h-141l156 430z"/>
<glyph unicode="z" horiz-adv-x="960" d="M113 0v88l534 830h-493v129h684v-86l-539 -832h537v-129h-723z"/>
<glyph unicode="{" horiz-adv-x="712" d="M102 539v116h9q72 0 113.5 61.5t41.5 166.5v102q0 236 106.5 352.5t278.5 120.5v-121q-121 -4 -179 -85t-58 -228v-115q0 -90 -15.5 -148.5t-44 -92t-69.5 -49t-95 -19.5v-8q53 -4 94.5 -16.5t70 -46t44 -92t15.5 -154.5v-115q0 -147 58 -228t179 -85v-121 q-172 4 -278.5 120.5t-106.5 352.5v104q0 100 -42 164t-113 64h-9z"/>
<glyph unicode="|" horiz-adv-x="491" d="M174 -420v2069h143v-2069h-143z"/>
<glyph unicode="}" horiz-adv-x="712" d="M61 -145q121 4 179.5 84.5t58.5 228.5v115q0 90 15.5 148t44 92t69.5 49.5t94 19.5v8q-53 4 -94 16.5t-69.5 46t-44 92t-15.5 154.5v115q0 147 -58.5 228t-179.5 85v121q172 -4 278.5 -120.5t106.5 -352.5v-104q0 -100 42 -164t114 -64h8v-116h-8q-72 0 -114 -61.5 t-42 -166.5v-102q0 -236 -106.5 -352.5t-278.5 -120.5v121z"/>
<glyph unicode="~" d="M168 567q0 51 13.5 99.5t44 85t78.5 59.5t118 23q66 0 127 -20.5t118.5 -44.5t110.5 -44t103 -20q68 0 111.5 35.5t47.5 93.5h82q0 -53 -14 -101.5t-45 -85.5t-79 -58.5t-116 -21.5q-63 0 -123.5 20.5t-117 44t-111.5 44t-106 20.5q-68 0 -112 -34.5t-48 -94.5h-82z"/>
<glyph unicode="¡" horiz-adv-x="481" d="M117 942q0 49 37 89t92 40t92 -40t37 -89t-37 -89t-92 -40t-92 40t-37 89zM168 29l63 618h23l61 -618v-439h-147v439z"/>
<glyph unicode="¢" horiz-adv-x="985" d="M102 717q0 229 89.5 365.5t248.5 170.5v205h142v-198q106 -10 181 -61.5t114 -158.5l-140 -53q-23 59 -72 97t-122 38q-147 0 -219 -106.5t-72 -298.5q0 -195 69.5 -301.5t210.5 -106.5q78 0 134.5 42t78.5 116l138 -49q-68 -229 -301 -248v-195h-142v199 q-158 33 -248 172t-90 371z"/>
<glyph unicode="£" horiz-adv-x="1175" d="M154 614v117h165q-16 33 -34.5 64.5t-32.5 68.5t-23.5 85t-9.5 114q0 76 27.5 147.5t84 127t143.5 88t206 32.5q135 0 231.5 -37t173.5 -96l-55 -131q-23 18 -52.5 39.5t-71.5 41t-97 33t-129 13.5q-80 0 -138.5 -23.5t-95 -60.5t-54 -83t-17.5 -93q0 -59 14 -106.5 t32.5 -87.5t36 -72.5t23.5 -63.5h336v-117h-309v-22q0 -262 -217 -459h823v-133h-950v162q55 25 92 76t58.5 111.5t29.5 124t8 112.5v28h-198z"/>
<glyph unicode="¤" horiz-adv-x="1239" d="M74 246l139 139q-39 59 -57.5 134t-18.5 163q0 86 17.5 159.5t56.5 139.5l-137 137l102 107l135 -133q59 45 137 71.5t170 26.5t169 -25.5t137 -70.5l133 131l108 -113l-133 -133q72 -125 72 -297q0 -180 -80 -303l141 -139l-102 -105l-137 137q-122 -96 -308 -96 q-184 0 -303 94l-133 -135zM283 682q0 -80 24.5 -147.5t68.5 -116.5t105 -77t137 -28t139.5 28t107.5 77t68.5 116.5t24.5 147.5t-24.5 147.5t-68.5 116.5t-107.5 78t-139.5 29t-137 -29t-105 -78t-68.5 -116.5t-24.5 -147.5z"/>
<glyph unicode="¥" horiz-adv-x="1081" d="M31 1434h159l349 -664l364 664h148l-445 -801h318v-123h-312v-135h312v-123h-312v-252h-143v252h-336v123h336v135h-336v123h340z"/>
<glyph unicode="¦" horiz-adv-x="491" d="M174 -246v666h143v-666h-143zM174 805v670h143v-670h-143z"/>
<glyph unicode="§" horiz-adv-x="1050" d="M102 -70l109 97q14 -18 41 -41t65.5 -43.5t91 -34.5t117.5 -14q123 0 198 39.5t75 144.5q0 61 -40 105t-98.5 76t-124 55.5t-118.5 45.5q-59 25 -111.5 50.5t-92.5 59.5t-63.5 78t-23.5 109q0 84 44 141.5t110 80.5q-74 41 -114 113.5t-40 170.5q0 70 31.5 125t85 93 t124 57.5t150.5 19.5q78 0 140.5 -15.5t110.5 -39t82 -52t56 -55.5l-110 -88q-16 16 -39 35t-55.5 35t-77.5 26.5t-107 10.5q-111 0 -174 -40t-63 -122q0 -45 26.5 -79t72.5 -61.5t109.5 -53t135.5 -52.5q63 -25 121.5 -50.5t103.5 -63t71.5 -91t26.5 -131.5 q0 -76 -30.5 -131t-98.5 -86q70 -51 99.5 -117.5t29.5 -152.5q0 -160 -111.5 -245t-304.5 -85q-78 0 -146.5 15.5t-123.5 40t-95 56.5t-65 64zM281 657q0 -49 36.5 -82.5t95 -59.5t130 -48.5t143.5 -48.5q53 23 83 57.5t30 89.5q0 47 -28 82t-75 62.5t-109.5 51t-133.5 48.5 q-80 -12 -126 -52t-46 -100z"/>
<glyph unicode="¨" horiz-adv-x="624" d="M49 1337q0 41 27.5 69t68.5 28t69 -28t28 -69t-28 -68.5t-69 -27.5t-68.5 27.5t-27.5 68.5zM389 1337q0 41 27.5 69t68.5 28t69 -28t28 -69t-28 -68.5t-69 -27.5t-68.5 27.5t-27.5 68.5z"/>
<glyph unicode="©" horiz-adv-x="1728" d="M123 717q0 158 56.5 293t156.5 235.5t235.5 156.5t292.5 56q158 0 293 -56t235.5 -156.5t157 -236t56.5 -292.5q0 -158 -56.5 -293t-157 -235.5t-235.5 -157t-293 -56.5t-293 56.5t-235 157t-156.5 235.5t-56.5 293zM240 717q0 -135 47 -250t131 -200t197.5 -133 t248.5 -48t249 48t197 133t129 200t46 250t-46 249.5t-129 198.5t-197 132.5t-249 48.5t-248.5 -48.5t-197.5 -132.5t-131 -198.5t-47 -249.5zM504 727q0 205 101.5 326t287.5 121q111 0 187.5 -59.5t115.5 -166.5l-129 -53q-20 59 -67.5 102t-125.5 43q-68 0 -112.5 -21.5 t-70 -62.5t-37 -98t-11.5 -131q0 -160 50 -237.5t188 -77.5q72 0 129 36.5t75 129.5l117 -48q-35 -121 -120.5 -184t-204.5 -63q-174 0 -273.5 113.5t-99.5 330.5z"/>
<glyph unicode="ª" horiz-adv-x="884" d="M72 852q0 74 30.5 127t79.5 89t109.5 53.5t120.5 17.5q51 0 112.5 -13.5t108.5 -33.5v28q0 121 -48 166t-159 45q-78 0 -137.5 -20.5t-100.5 -53.5l-36 121q47 35 121.5 57.5t172.5 22.5q55 0 112.5 -9t106 -42t78 -96.5t29.5 -169.5v-561h-139v61q-20 -16 -49 -30.5 t-62 -26t-67.5 -18.5t-67.5 -7q-139 0 -227 74t-88 219zM219 852q0 -80 50 -126t134 -46q61 0 127 29.5t103 64.5v189q-43 23 -102.5 38t-104.5 15q-39 0 -76 -9.5t-66.5 -29t-47 -51t-17.5 -74.5z"/>
<glyph unicode="«" horiz-adv-x="974" d="M61 524l312 523h159l-311 -523l311 -524h-159zM469 524l311 523h164l-311 -523l311 -524h-164z"/>
<glyph unicode="¬" d="M164 811v137h962v-588h-147v451h-815z"/>
<glyph unicode="­" horiz-adv-x="763" d="M154 541v139h456v-139h-456z"/>
<glyph unicode="®" horiz-adv-x="1728" d="M123 717q0 158 56.5 293t156.5 235.5t235.5 156.5t292.5 56q158 0 293 -56t235.5 -156.5t157 -236t56.5 -292.5q0 -158 -56.5 -293t-157 -235.5t-235.5 -157t-293 -56.5t-293 56.5t-235 157t-156.5 235.5t-56.5 293zM240 717q0 -135 47 -250t131 -200t197.5 -133 t248.5 -48t249 48t197 133t129 200t46 250t-46 249.5t-129 198.5t-197 132.5t-249 48.5t-248.5 -48.5t-197.5 -132.5t-131 -198.5t-47 -249.5zM553 281v866h424q63 0 109.5 -24.5t74 -61.5t40.5 -81t13 -83q0 -92 -56 -169t-159 -93l209 -354h-147l-195 352h-180v-352h-133z M686 748h295q47 0 75.5 43t28.5 102q0 20 -6 44t-19 43t-32.5 31.5t-46.5 12.5h-295v-276z"/>
<glyph unicode="¯" horiz-adv-x="624" d="M-23 1247v125h676v-125h-676z"/>
<glyph unicode="°" horiz-adv-x="794" d="M51 1264q0 74 26.5 136t74 107t111 71t136.5 26q72 0 135.5 -26t109.5 -71t72.5 -107.5t26.5 -135.5q0 -74 -26.5 -136.5t-72.5 -108.5t-109.5 -71.5t-135.5 -25.5q-74 0 -137 25.5t-110.5 71.5t-74 108.5t-26.5 136.5zM203 1264q0 -86 57 -143.5t139 -57.5 q84 0 137.5 57.5t53.5 143.5q0 92 -53.5 147t-137.5 55q-82 0 -139 -55t-57 -147z"/>
<glyph unicode="±" d="M164 0v137h962v-137h-962zM164 764v137h405v344h148v-344h409v-137h-409v-344h-148v344h-405z"/>
<glyph unicode="²" horiz-adv-x="696" d="M51 909q0 82 21.5 140.5t61.5 105.5t95.5 87t122.5 85q66 43 103 90t37 127q0 20 -8.5 45t-28 46.5t-50 34.5t-75.5 13q-141 0 -172 -143l-105 43q23 88 95.5 146.5t197.5 58.5q117 0 194.5 -67.5t77.5 -186.5q0 -111 -59 -181.5t-180 -144.5q-80 -49 -126 -92t-69 -98 h432v-109h-565z"/>
<glyph unicode="³" horiz-adv-x="690" d="M39 1100l113 47q31 -74 80 -115t118 -41q78 0 120 42t42 108q0 59 -38 108t-105 49h-70v103h45q72 0 102.5 44t30.5 99q0 53 -33.5 97.5t-105.5 44.5q-59 0 -104.5 -38t-69.5 -94l-109 37q35 84 112 140.5t179 56.5q115 0 188.5 -60.5t73.5 -171.5q0 -55 -30.5 -109 t-85.5 -79q66 -23 108.5 -76t42.5 -135q0 -129 -82 -198.5t-211 -69.5q-117 0 -194.5 58.5t-116.5 152.5z"/>
<glyph unicode="´" horiz-adv-x="624" d="M131 1180l291 319h219l-365 -319h-145z"/>
<glyph unicode="µ" horiz-adv-x="1095" d="M154 -410v1457h143v-639q0 -96 16.5 -155.5t48 -92.5t76.5 -44.5t103 -11.5q55 0 102 14.5t82 49.5t54.5 92t19.5 143v644h143v-1047h-143v104q-78 -80 -153 -104.5t-134 -24.5q-74 0 -123 26t-92 99v-440z"/>
<glyph unicode="¶" horiz-adv-x="1234" d="M41 1006q0 80 23.5 156.5t79 137t144.5 97.5t220 37h563v-1643l-145 -65v1564h-209v-1634l-146 -66v979q-152 0 -253 40t-162.5 103.5t-88 141.5t-26.5 152z"/>
<glyph unicode="·" horiz-adv-x="401" d="M72 715q0 49 36.5 89t92.5 40q55 0 92 -40t37 -89t-37 -89t-92 -40t-92 40t-37 89z"/>
<glyph unicode="¸" horiz-adv-x="624" d="M143 -422l95 62q12 -16 28.5 -18.5t44.5 -2.5q43 0 76 29.5t33 75.5q0 39 -39 68.5t-86 29.5q-51 0 -74 -10l-24 30l139 178h84l-80 -133q59 0 100 -14t66.5 -37.5t37 -53.5t11.5 -61q0 -90 -66.5 -145t-164.5 -55q-59 0 -104.5 15t-76.5 42z"/>
<glyph unicode="¹" horiz-adv-x="348" d="M20 1573v88q57 0 88 30.5t48 82.5h84v-865h-123v664h-97z"/>
<glyph unicode="º" horiz-adv-x="899" d="M61 1008q0 213 104.5 331.5t283.5 118.5q180 0 284.5 -118.5t104.5 -331.5q0 -217 -104.5 -334t-284.5 -117q-178 0 -283 117t-105 334zM205 1008q0 -154 65.5 -236t178.5 -82q123 0 184 82t61 236t-61.5 235.5t-183.5 81.5q-113 0 -178.5 -82t-65.5 -235z"/>
<glyph unicode="»" horiz-adv-x="974" d="M31 0l311 524l-311 523h159l312 -523l-312 -524h-159zM438 0l312 524l-312 523h164l311 -523l-311 -524h-164z"/>
<glyph unicode="¼" horiz-adv-x="1318" d="M-2 -25l979 1483h141l-979 -1483h-141zM40 1243v88q57 0 88 31t48 82h86v-864h-125v663h-97zM608 221v62l459 583h96v-532h107v-113h-107v-221h-125v221h-430zM774 334h264v352z"/>
<glyph unicode="½" horiz-adv-x="1419" d="M-2 -25l979 1483h141l-979 -1483h-141zM40 1243v88q57 0 88 31t48 82h86v-864h-125v663h-97zM774 0q0 82 21.5 140.5t61.5 105.5t95.5 87t122.5 85q66 43 103 90t37 127q0 20 -8.5 46t-28 46.5t-50 34.5t-75.5 14q-141 0 -172 -145l-105 43q23 88 95.5 146.5t197.5 58.5 q117 0 194.5 -68t77.5 -186q0 -111 -59 -181.5t-180 -144.5q-80 -49 -126 -90t-69 -96h432v-113h-565z"/>
<glyph unicode="¾" horiz-adv-x="1613" d="M41 766l113 47q31 -74 80 -115t118 -41q78 0 120 43t42 109q0 29 -10 57.5t-28.5 51t-45.5 37t-59 14.5h-70v102h45q72 0 102.5 44t30.5 99q0 53 -33.5 97.5t-105.5 44.5q-59 0 -104.5 -38t-69.5 -93l-109 37q35 84 112 140t179 56q115 0 188.5 -60.5t73.5 -170.5 q0 -55 -30.5 -109.5t-85.5 -79.5q66 -23 108.5 -77t42.5 -136q0 -129 -82 -199.5t-211 -70.5q-117 0 -194.5 58.5t-116.5 152.5zM291 -25l979 1483h141l-979 -1483h-141zM901 221v62l459 583h96v-532h107v-113h-107v-221h-125v221h-430zM1067 334h264v352z"/>
<glyph unicode="¿" horiz-adv-x="1015" d="M72 -18q0 82 28.5 140t70.5 105t92 87t93 87.5t72 107.5t29 146h145q0 -100 -28.5 -167.5t-71.5 -116.5t-92.5 -87t-92.5 -79t-71.5 -93.5t-28.5 -129.5q0 -115 72.5 -189t210.5 -74q156 0 241.5 86t85.5 240h148q0 -102 -35 -186t-98.5 -143.5t-150.5 -92.5t-191 -33 t-184 30t-134.5 82t-82 124t-27.5 156zM408 940q0 49 35.5 90t91.5 41q27 0 51 -11t42.5 -29.5t30 -42t11.5 -48.5q0 -51 -41 -88t-94 -37q-55 0 -91 37t-36 88z"/>
<glyph unicode="À" horiz-adv-x="1294" d="M92 0l498 1434h110l502 -1434h-145l-131 371h-559l-125 -371h-150zM349 1888h219l291 -319h-146zM410 498h473l-238 690z"/>
<glyph unicode="Á" horiz-adv-x="1294" d="M92 0l498 1434h110l502 -1434h-145l-131 371h-559l-125 -371h-150zM410 498h473l-238 690zM424 1569l291 319h219l-365 -319h-145z"/>
<glyph unicode="Â" horiz-adv-x="1294" d="M92 0l498 1434h110l502 -1434h-145l-131 371h-559l-125 -371h-150zM275 1569l288 319h164l289 -319h-133l-238 206l-237 -206h-133zM410 498h473l-238 690z"/>
<glyph unicode="Ã" horiz-adv-x="1294" d="M92 0l498 1434h110l502 -1434h-145l-131 371h-559l-125 -371h-150zM295 1630q0 109 46 167t145 58q55 0 100 -16t85 -35.5t77 -36t75 -16.5q39 0 66 24.5t31 71.5h78q0 -109 -45.5 -167t-143.5 -58q-55 0 -100 16.5t-85 35t-77 34.5t-76 16t-65.5 -23.5t-30.5 -70.5h-80z M410 498h473l-238 690z"/>
<glyph unicode="Ä" horiz-adv-x="1294" d="M92 0l498 1434h110l502 -1434h-145l-131 371h-559l-125 -371h-150zM379 1726q0 41 27.5 69t68.5 28t69 -28t28 -69t-28 -68.5t-69 -27.5t-68.5 27.5t-27.5 68.5zM410 498h473l-238 690zM719 1726q0 41 27.5 69t68.5 28t69 -28t28 -69t-28 -68.5t-69 -27.5t-68.5 27.5 t-27.5 68.5z"/>
<glyph unicode="Å" horiz-adv-x="1294" d="M92 0l459 1321q-57 29 -95 84t-38 127q0 47 18.5 89t50 72.5t74.5 48t90 17.5t90 -17.5t75 -48t51.5 -72.5t19.5 -89q0 -72 -41 -129t-105 -86l461 -1317h-145l-131 371h-559l-125 -371h-150zM410 498h473l-238 690zM539 1532q0 -53 32.5 -89t79.5 -36q49 0 82 36t33 89 t-33 87t-82 34q-47 0 -79.5 -34t-32.5 -87z"/>
<glyph unicode="Æ" horiz-adv-x="1697" d="M-63 0l833 1434h770v-138h-557v-487h379v-135h-379v-537h602v-137h-745v371h-531l-211 -371h-161zM381 498h459v813z"/>
<glyph unicode="Ç" horiz-adv-x="1257" d="M113 717q0 147 34.5 281.5t107.5 236.5t184.5 162.5t267.5 60.5q96 0 166.5 -19.5t122 -52t87 -74.5t62.5 -85l-127 -74q-25 35 -52.5 66.5t-64.5 56t-85 40t-109 15.5q-123 0 -208 -56t-137.5 -144.5t-76 -198t-23.5 -215.5q0 -119 25.5 -229.5t79 -195.5t138.5 -136.5 t202 -51.5q129 0 205.5 50.5t125.5 132.5l127 -49q-25 -47 -61.5 -92.5t-88.5 -81t-120 -59t-152 -28.5l-53 -90q59 0 100 -14t67 -37.5t37 -53.5t11 -61q0 -90 -66.5 -145t-164.5 -55q-59 0 -104.5 15t-75.5 42l94 62q12 -16 28.5 -18.5t45.5 -2.5q43 0 75.5 29.5 t32.5 75.5q0 39 -39 68.5t-86 29.5q-51 0 -74 -10l-24 30l106 135q-145 10 -247.5 77t-168 169.5t-95 230.5t-29.5 263z"/>
<glyph unicode="È" horiz-adv-x="1159" d="M184 0v1434h817v-138h-673v-487h454v-135h-454v-537h719v-137h-863zM209 1888h219l291 -319h-146z"/>
<glyph unicode="É" horiz-adv-x="1159" d="M184 0v1434h817v-138h-673v-487h454v-135h-454v-537h719v-137h-863zM381 1569l291 319h219l-365 -319h-145z"/>
<glyph unicode="Ê" horiz-adv-x="1159" d="M184 0v1434h817v-138h-673v-487h454v-135h-454v-537h719v-137h-863zM224 1569l288 319h164l289 -319h-133l-238 206l-237 -206h-133z"/>
<glyph unicode="Ë" horiz-adv-x="1159" d="M184 0v1434h817v-138h-673v-487h454v-135h-454v-537h719v-137h-863zM274 1726q0 41 27.5 69t68.5 28t69 -28t28 -69t-28 -68.5t-69 -27.5t-68.5 27.5t-27.5 68.5zM614 1726q0 41 27.5 69t68.5 28t69 -28t28 -69t-28 -68.5t-69 -27.5t-68.5 27.5t-27.5 68.5z"/>
<glyph unicode="Ì" horiz-adv-x="512" d="M-34 1888h219l291 -319h-146zM184 0v1434h144v-1434h-144z"/>
<glyph unicode="Í" horiz-adv-x="512" d="M31 1569l291 319h219l-365 -319h-145zM184 0v1434h144v-1434h-144z"/>
<glyph unicode="Î" horiz-adv-x="512" d="M-114 1569l288 319h164l289 -319h-133l-238 206l-237 -206h-133zM184 0v1434h144v-1434h-144z"/>
<glyph unicode="Ï" horiz-adv-x="512" d="M-10 1726q0 41 27.5 69t68.5 28t69 -28t28 -69t-28 -68.5t-69 -27.5t-68.5 27.5t-27.5 68.5zM184 0v1434h144v-1434h-144zM330 1726q0 41 27.5 69t68.5 28t69 -28t28 -69t-28 -68.5t-69 -27.5t-68.5 27.5t-27.5 68.5z"/>
<glyph unicode="Ð" horiz-adv-x="1327" d="M41 651v127h143v656h381q182 0 306 -62.5t201 -164t109.5 -229.5t32.5 -261q0 -123 -29.5 -251t-105 -231.5t-202.5 -169t-320 -65.5h-373v651h-143zM328 129h239q143 0 239.5 52t154 137t81 189.5t23.5 209.5q0 111 -26.5 217t-84 188t-147.5 132.5t-217 50.5h-262v-527 h317v-127h-317v-522z"/>
<glyph unicode="Ñ" horiz-adv-x="1382" d="M184 0v1434h146l725 -1182v1182h143v-1434h-145l-725 1165v-1165h-144zM340 1630q0 109 46 167t145 58q55 0 100 -16t85 -35.5t77 -36t75 -16.5q39 0 66 24.5t31 71.5h78q0 -109 -45.5 -167t-143.5 -58q-55 0 -100 16.5t-85 35t-77 34.5t-76 16t-65.5 -23.5t-30.5 -70.5 h-80z"/>
<glyph unicode="Ò" horiz-adv-x="1413" d="M113 717q0 133 30.5 265t100 238.5t183.5 172t280 65.5t279.5 -65.5t183 -172t100 -238.5t30.5 -265t-30.5 -265.5t-100 -239t-183.5 -172t-279 -65.5q-166 0 -280 65.5t-183.5 172t-100 239t-30.5 265.5zM262 717q0 -117 23.5 -227.5t76 -195.5t137.5 -137.5t208 -52.5 t207.5 55.5t137 143.5t76 197.5t23.5 216.5q0 117 -23.5 227.5t-76 195.5t-137.5 137t-207 52q-123 0 -208 -55t-137.5 -143.5t-76 -198t-23.5 -215.5zM400 1888h219l291 -319h-146z"/>
<glyph unicode="Ó" horiz-adv-x="1413" d="M113 717q0 133 30.5 265t100 238.5t183.5 172t280 65.5t279.5 -65.5t183 -172t100 -238.5t30.5 -265t-30.5 -265.5t-100 -239t-183.5 -172t-279 -65.5q-166 0 -280 65.5t-183.5 172t-100 239t-30.5 265.5zM262 717q0 -117 23.5 -227.5t76 -195.5t137.5 -137.5t208 -52.5 t207.5 55.5t137 143.5t76 197.5t23.5 216.5q0 117 -23.5 227.5t-76 195.5t-137.5 137t-207 52q-123 0 -208 -55t-137.5 -143.5t-76 -198t-23.5 -215.5zM526 1569l291 319h219l-365 -319h-145z"/>
<glyph unicode="Ô" horiz-adv-x="1413" d="M113 717q0 133 30.5 265t100 238.5t183.5 172t280 65.5t279.5 -65.5t183 -172t100 -238.5t30.5 -265t-30.5 -265.5t-100 -239t-183.5 -172t-279 -65.5q-166 0 -280 65.5t-183.5 172t-100 239t-30.5 265.5zM262 717q0 -117 23.5 -227.5t76 -195.5t137.5 -137.5t208 -52.5 t207.5 55.5t137 143.5t76 197.5t23.5 216.5q0 117 -23.5 227.5t-76 195.5t-137.5 137t-207 52q-123 0 -208 -55t-137.5 -143.5t-76 -198t-23.5 -215.5zM361 1569l288 319h164l289 -319h-133l-238 206l-237 -206h-133z"/>
<glyph unicode="Õ" horiz-adv-x="1413" d="M113 717q0 133 30.5 265t100 238.5t183.5 172t280 65.5t279.5 -65.5t183 -172t100 -238.5t30.5 -265t-30.5 -265.5t-100 -239t-183.5 -172t-279 -65.5q-166 0 -280 65.5t-183.5 172t-100 239t-30.5 265.5zM262 717q0 -117 23.5 -227.5t76 -195.5t137.5 -137.5t208 -52.5 t207.5 55.5t137 143.5t76 197.5t23.5 216.5q0 117 -23.5 227.5t-76 195.5t-137.5 137t-207 52q-123 0 -208 -55t-137.5 -143.5t-76 -198t-23.5 -215.5zM356 1630q0 109 46 167t145 58q55 0 100 -16t85 -35.5t77 -36t75 -16.5q39 0 66 24.5t31 71.5h78q0 -109 -45.5 -167 t-143.5 -58q-55 0 -100 16.5t-85 35t-77 34.5t-76 16t-65.5 -23.5t-30.5 -70.5h-80z"/>
<glyph unicode="Ö" horiz-adv-x="1413" d="M113 717q0 133 30.5 265t100 238.5t183.5 172t280 65.5t279.5 -65.5t183 -172t100 -238.5t30.5 -265t-30.5 -265.5t-100 -239t-183.5 -172t-279 -65.5q-166 0 -280 65.5t-183.5 172t-100 239t-30.5 265.5zM262 717q0 -117 23.5 -227.5t76 -195.5t137.5 -137.5t208 -52.5 t207.5 55.5t137 143.5t76 197.5t23.5 216.5q0 117 -23.5 227.5t-76 195.5t-137.5 137t-207 52q-123 0 -208 -55t-137.5 -143.5t-76 -198t-23.5 -215.5zM440 1726q0 41 27.5 69t68.5 28t69 -28t28 -69t-28 -68.5t-69 -27.5t-68.5 27.5t-27.5 68.5zM780 1726q0 41 27.5 69 t68.5 28t69 -28t28 -69t-28 -68.5t-69 -27.5t-68.5 27.5t-27.5 68.5z"/>
<glyph unicode="×" d="M190 350l357 355l-354 348l100 98l350 -350l350 352l103 -104l-353 -349l351 -354l-97 -96l-350 350l-350 -352z"/>
<glyph unicode="Ø" horiz-adv-x="1413" d="M113 717q0 133 30.5 265t100 238.5t183.5 172t280 65.5q109 0 193.5 -29.5t150.5 -80.5l73 110h152l-133 -201q86 -109 121.5 -252t35.5 -288q0 -133 -30.5 -265.5t-100 -239t-183.5 -172t-279 -65.5q-111 0 -197 30t-152 81l-73 -111h-148l133 201q-86 109 -121.5 251 t-35.5 290zM262 717q0 -115 21.5 -221.5t70.5 -192.5l621 930q-51 45 -116.5 70.5t-151.5 25.5q-123 0 -208 -55t-137.5 -143.5t-76 -198t-23.5 -215.5zM436 201q49 -45 117 -71t154 -26q123 0 207.5 55.5t137 143.5t76 197.5t23.5 216.5q0 115 -21.5 221t-72.5 192z"/>
<glyph unicode="Ù" horiz-adv-x="1331" d="M174 532v902h143v-902q0 -129 29 -211.5t77 -131t110.5 -67t132.5 -18.5t132 18.5t110 67t77 131t29 211.5v902h143v-902q0 -150 -33.5 -255t-97 -172.5t-154.5 -98.5t-206 -31t-206 31t-154.5 98.5t-97.5 173t-34 254.5zM375 1888h219l291 -319h-146z"/>
<glyph unicode="Ú" horiz-adv-x="1331" d="M174 532v902h143v-902q0 -129 29 -211.5t77 -131t110.5 -67t132.5 -18.5t132 18.5t110 67t77 131t29 211.5v902h143v-902q0 -150 -33.5 -255t-97 -172.5t-154.5 -98.5t-206 -31t-206 31t-154.5 98.5t-97.5 173t-34 254.5zM481 1569l291 319h219l-365 -319h-145z"/>
<glyph unicode="Û" horiz-adv-x="1331" d="M174 532v902h143v-902q0 -129 29 -211.5t77 -131t110.5 -67t132.5 -18.5t132 18.5t110 67t77 131t29 211.5v902h143v-902q0 -150 -33.5 -255t-97 -172.5t-154.5 -98.5t-206 -31t-206 31t-154.5 98.5t-97.5 173t-34 254.5zM295 1569l288 319h164l289 -319h-133l-238 206 l-237 -206h-133z"/>
<glyph unicode="Ü" horiz-adv-x="1331" d="M174 532v902h143v-902q0 -129 29 -211.5t77 -131t110.5 -67t132.5 -18.5t132 18.5t110 67t77 131t29 211.5v902h143v-902q0 -150 -33.5 -255t-97 -172.5t-154.5 -98.5t-206 -31t-206 31t-154.5 98.5t-97.5 173t-34 254.5zM399 1726q0 41 27.5 69t68.5 28t69 -28t28 -69 t-28 -68.5t-69 -27.5t-68.5 27.5t-27.5 68.5zM739 1726q0 41 27.5 69t68.5 28t69 -28t28 -69t-28 -68.5t-69 -27.5t-68.5 27.5t-27.5 68.5z"/>
<glyph unicode="Ý" horiz-adv-x="1200" d="M61 1434h158l381 -738l391 738h148l-465 -865v-569h-144v563zM414 1569l291 319h219l-365 -319h-145z"/>
<glyph unicode="Þ" horiz-adv-x="1212" d="M184 0v1434h144v-285h381q129 0 215 -36t139 -95.5t75.5 -135t22.5 -155.5q0 -72 -24.5 -146.5t-77.5 -135t-139 -99.5t-211 -39h-381v-307h-144zM328 436h393q84 0 142.5 26.5t94 67.5t51 93.5t15.5 103.5q0 45 -13.5 96t-48 95.5t-93 73t-148.5 28.5h-393v-584z"/>
<glyph unicode="ß" horiz-adv-x="1097" d="M133 -416v1395q0 131 36 222t93 148.5t130 83t145 25.5q90 0 164.5 -26.5t128 -75.5t83 -119t29.5 -154q0 -98 -46 -180t-148 -115q133 -47 200.5 -142t67.5 -218q0 -102 -33 -186t-90 -143.5t-136 -91.5t-171 -32q-47 0 -90 9.5t-72 23.5l68 111q39 -15 98 -15 q47 0 96 18.5t89 56.5t65.5 97.5t25.5 143.5q0 55 -17.5 107.5t-56 94.5t-103 66.5t-157.5 24.5h-8v129h8q117 0 189 54t72 181q0 117 -63.5 184.5t-190.5 67.5q-53 0 -101.5 -19.5t-84.5 -61.5t-56.5 -106.5t-20.5 -156.5v-1327z"/>
<glyph unicode="à" horiz-adv-x="1001" d="M92 330q0 90 32 155.5t84 107.5t121.5 62.5t143.5 20.5q66 0 135.5 -16.5t147.5 -57.5v88q0 80 -19.5 129t-51.5 78t-74 39t-85 10q-39 0 -82 -10t-84 -26.5t-78.5 -36t-66.5 -39.5l-41 122q63 41 160.5 78t206.5 37q55 0 116.5 -15.5t112.5 -55t85 -110.5t34 -181v-709 h-133v102q-63 -57 -142 -92t-165 -35q-158 0 -257.5 89.5t-99.5 265.5zM225 330q0 -104 61.5 -167t176.5 -63q47 0 90 14.5t80 37t67.5 52t55.5 58.5v203q-51 35 -126 60.5t-143 25.5q-53 0 -100 -13.5t-83 -41t-57.5 -68.5t-21.5 -98zM234 1499h219l291 -319h-146z"/>
<glyph unicode="á" horiz-adv-x="1001" d="M92 330q0 90 32 155.5t84 107.5t121.5 62.5t143.5 20.5q66 0 135.5 -16.5t147.5 -57.5v88q0 80 -19.5 129t-51.5 78t-74 39t-85 10q-39 0 -82 -10t-84 -26.5t-78.5 -36t-66.5 -39.5l-41 122q63 41 160.5 78t206.5 37q55 0 116.5 -15.5t112.5 -55t85 -110.5t34 -181v-709 h-133v102q-63 -57 -142 -92t-165 -35q-158 0 -257.5 89.5t-99.5 265.5zM225 330q0 -104 61.5 -167t176.5 -63q47 0 90 14.5t80 37t67.5 52t55.5 58.5v203q-51 35 -126 60.5t-143 25.5q-53 0 -100 -13.5t-83 -41t-57.5 -68.5t-21.5 -98zM340 1180l291 319h219l-365 -319h-145 z"/>
<glyph unicode="â" horiz-adv-x="1001" d="M92 330q0 90 32 155.5t84 107.5t121.5 62.5t143.5 20.5q66 0 135.5 -16.5t147.5 -57.5v88q0 80 -19.5 129t-51.5 78t-74 39t-85 10q-39 0 -82 -10t-84 -26.5t-78.5 -36t-66.5 -39.5l-41 122q63 41 160.5 78t206.5 37q55 0 116.5 -15.5t112.5 -55t85 -110.5t34 -181v-709 h-133v102q-63 -57 -142 -92t-165 -35q-158 0 -257.5 89.5t-99.5 265.5zM172 1180l288 319h164l289 -319h-133l-238 206l-237 -206h-133zM225 330q0 -104 61.5 -167t176.5 -63q47 0 90 14.5t80 37t67.5 52t55.5 58.5v203q-51 35 -126 60.5t-143 25.5q-53 0 -100 -13.5 t-83 -41t-57.5 -68.5t-21.5 -98z"/>
<glyph unicode="ã" horiz-adv-x="1001" d="M92 330q0 90 32 155.5t84 107.5t121.5 62.5t143.5 20.5q66 0 135.5 -16.5t147.5 -57.5v88q0 80 -19.5 129t-51.5 78t-74 39t-85 10q-39 0 -82 -10t-84 -26.5t-78.5 -36t-66.5 -39.5l-41 122q63 41 160.5 78t206.5 37q55 0 116.5 -15.5t112.5 -55t85 -110.5t34 -181v-709 h-133v102q-63 -57 -142 -92t-165 -35q-158 0 -257.5 89.5t-99.5 265.5zM192 1241q0 109 46 167t145 58q55 0 100 -16t85 -35.5t77 -36t75 -16.5q39 0 66 24.5t31 71.5h78q0 -109 -45.5 -167t-143.5 -58q-55 0 -100 16.5t-85 35t-77 34.5t-76 16t-65.5 -23.5t-30.5 -70.5h-80 zM225 330q0 -104 61.5 -167t176.5 -63q47 0 90 14.5t80 37t67.5 52t55.5 58.5v203q-51 35 -126 60.5t-143 25.5q-53 0 -100 -13.5t-83 -41t-57.5 -68.5t-21.5 -98z"/>
<glyph unicode="ä" horiz-adv-x="1001" d="M92 330q0 90 32 155.5t84 107.5t121.5 62.5t143.5 20.5q66 0 135.5 -16.5t147.5 -57.5v88q0 80 -19.5 129t-51.5 78t-74 39t-85 10q-39 0 -82 -10t-84 -26.5t-78.5 -36t-66.5 -39.5l-41 122q63 41 160.5 78t206.5 37q55 0 116.5 -15.5t112.5 -55t85 -110.5t34 -181v-709 h-133v102q-63 -57 -142 -92t-165 -35q-158 0 -257.5 89.5t-99.5 265.5zM225 330q0 -104 61.5 -167t176.5 -63q47 0 90 14.5t80 37t67.5 52t55.5 58.5v203q-51 35 -126 60.5t-143 25.5q-53 0 -100 -13.5t-83 -41t-57.5 -68.5t-21.5 -98zM276 1337q0 41 27.5 69t68.5 28 t69 -28t28 -69t-28 -68.5t-69 -27.5t-68.5 27.5t-27.5 68.5zM616 1337q0 41 27.5 69t68.5 28t69 -28t28 -69t-28 -68.5t-69 -27.5t-68.5 27.5t-27.5 68.5z"/>
<glyph unicode="å" horiz-adv-x="1001" d="M92 330q0 90 32 155.5t84 107.5t121.5 62.5t143.5 20.5q66 0 135.5 -16.5t147.5 -57.5v88q0 80 -19.5 129t-51.5 78t-74 39t-85 10q-39 0 -82 -10t-84 -26.5t-78.5 -36t-66.5 -39.5l-41 122q63 41 160.5 78t206.5 37q55 0 116.5 -15.5t112.5 -55t85 -110.5t34 -181v-709 h-133v102q-63 -57 -142 -92t-165 -35q-158 0 -257.5 89.5t-99.5 265.5zM225 330q0 -104 61.5 -167t176.5 -63q47 0 90 14.5t80 37t67.5 52t55.5 58.5v203q-51 35 -126 60.5t-143 25.5q-53 0 -100 -13.5t-83 -41t-57.5 -68.5t-21.5 -98zM307 1411q0 47 18.5 89t51 73 t75.5 48.5t90 17.5t90.5 -17.5t75 -48.5t51 -73t19.5 -89t-19.5 -90t-51 -74.5t-75 -50t-90.5 -18.5t-90 18.5t-75.5 50t-51 74.5t-18.5 90zM428 1411q0 -55 33.5 -91t80.5 -36q49 0 82 36t33 91t-32.5 88t-82.5 33q-47 0 -80.5 -32.5t-33.5 -88.5z"/>
<glyph unicode="æ" horiz-adv-x="1677" d="M92 330q0 88 31 153.5t83 108.5t120.5 63.5t146.5 20.5q66 0 135.5 -16.5t147.5 -57.5v88q0 139 -60.5 197.5t-169.5 58.5q-39 0 -82 -10t-84 -26.5t-78.5 -36t-66.5 -39.5l-41 122q63 41 161.5 78t205.5 37q113 0 189.5 -43t115.5 -119q72 90 163 126t181 36 q92 0 169 -32.5t131 -96t85 -159t31 -218.5v-40.5t-4 -59.5h-713q20 -174 102 -265t205 -91q57 0 117.5 18t120.5 63l77 -96q-55 -45 -137 -82t-184 -37q-119 0 -213 57.5t-152 153.5q-37 -55 -83 -95t-96 -65.5t-101 -38t-96 -12.5q-158 0 -257.5 89.5t-99.5 265.5z M225 330q0 -104 61.5 -167t176.5 -63q47 0 90 14.5t80 37t67.5 52t55.5 58.5v203q-51 35 -126 60.5t-143 25.5q-53 0 -100 -13.5t-83 -41t-57.5 -68.5t-21.5 -98zM885 594h575q0 106 -26.5 174t-67.5 106.5t-88 53t-86 14.5q-127 0 -212 -84t-95 -264z"/>
<glyph unicode="ç" horiz-adv-x="923" d="M82 522q0 260 113.5 404.5t316.5 144.5q117 0 205 -56.5t131 -162.5l-131 -51q-25 59 -75 100t-136 41q-74 0 -125 -29.5t-85 -84t-49.5 -132.5t-15.5 -174q0 -199 65.5 -308.5t205.5 -109.5q86 0 145.5 43t85.5 117l129 -49q-33 -98 -111.5 -158.5t-189.5 -76.5l-55 -93 q59 0 100 -14t65.5 -37.5t35 -53.5t10.5 -61q0 -90 -65 -145t-163 -55q-59 0 -104 15t-76 42l94 62q12 -16 29 -18.5t45 -2.5q43 0 77 29.5t34 75.5q0 39 -40 68.5t-87 29.5q-51 0 -74 -10l-25 30l105 135q-178 10 -281.5 150.5t-103.5 394.5z"/>
<glyph unicode="è" horiz-adv-x="1021" d="M82 524q0 131 34 232.5t93 171t143 106.5t185 37q84 0 158.5 -29.5t132 -91t90 -158t32.5 -227.5v-40.5t-4 -59.5h-713q18 -160 96.5 -258t213.5 -98q57 0 116.5 18t118.5 63l78 -96q-61 -51 -144 -85t-175 -34q-106 0 -190.5 44t-143 120t-90 175.5t-31.5 209.5z M229 594h576q0 106 -26.5 174t-66.5 106.5t-87 53t-88 14.5q-127 0 -212 -84t-96 -264zM232 1499h219l291 -319h-146z"/>
<glyph unicode="é" horiz-adv-x="1021" d="M82 524q0 131 34 232.5t93 171t143 106.5t185 37q84 0 158.5 -29.5t132 -91t90 -158t32.5 -227.5v-40.5t-4 -59.5h-713q18 -160 96.5 -258t213.5 -98q57 0 116.5 18t118.5 63l78 -96q-61 -51 -144 -85t-175 -34q-106 0 -190.5 44t-143 120t-90 175.5t-31.5 209.5z M229 594h576q0 106 -26.5 174t-66.5 106.5t-87 53t-88 14.5q-127 0 -212 -84t-96 -264zM315 1180l291 319h219l-365 -319h-145z"/>
<glyph unicode="ê" horiz-adv-x="1021" d="M82 524q0 131 34 232.5t93 171t143 106.5t185 37q84 0 158.5 -29.5t132 -91t90 -158t32.5 -227.5v-40.5t-4 -59.5h-713q18 -160 96.5 -258t213.5 -98q57 0 116.5 18t118.5 63l78 -96q-61 -51 -144 -85t-175 -34q-106 0 -190.5 44t-143 120t-90 175.5t-31.5 209.5z M166 1180l288 319h164l289 -319h-133l-238 206l-237 -206h-133zM229 594h576q0 106 -26.5 174t-66.5 106.5t-87 53t-88 14.5q-127 0 -212 -84t-96 -264z"/>
<glyph unicode="ë" horiz-adv-x="1021" d="M82 524q0 131 34 232.5t93 171t143 106.5t185 37q84 0 158.5 -29.5t132 -91t90 -158t32.5 -227.5v-40.5t-4 -59.5h-713q18 -160 96.5 -258t213.5 -98q57 0 116.5 18t118.5 63l78 -96q-61 -51 -144 -85t-175 -34q-106 0 -190.5 44t-143 120t-90 175.5t-31.5 209.5z M229 594h576q0 106 -26.5 174t-66.5 106.5t-87 53t-88 14.5q-127 0 -212 -84t-96 -264zM270 1337q0 41 27.5 69t68.5 28t69 -28t28 -69t-28 -68.5t-69 -27.5t-68.5 27.5t-27.5 68.5zM610 1337q0 41 27.5 69t68.5 28t69 -28t28 -69t-28 -68.5t-69 -27.5t-68.5 27.5 t-27.5 68.5z"/>
<glyph unicode="ì" horiz-adv-x="454" d="M-73 1499h219l291 -319h-146zM156 0v1047h143v-1047h-143z"/>
<glyph unicode="í" horiz-adv-x="454" d="M25 1180l291 319h219l-365 -319h-145zM156 0v1047h143v-1047h-143z"/>
<glyph unicode="î" horiz-adv-x="454" d="M-141 1180l288 319h164l289 -319h-133l-238 206l-237 -206h-133zM156 0v1047h143v-1047h-143z"/>
<glyph unicode="ï" horiz-adv-x="454" d="M-37 1337q0 41 27.5 69t68.5 28t69 -28t28 -69t-28 -68.5t-69 -27.5t-68.5 27.5t-27.5 68.5zM156 0v1047h143v-1047h-143zM303 1337q0 41 27.5 69t68.5 28t69 -28t28 -69t-28 -68.5t-69 -27.5t-68.5 27.5t-27.5 68.5z"/>
<glyph unicode="ð" horiz-adv-x="1060" d="M82 453q0 109 34 197.5t94 151t142 97.5t178 35q63 0 112.5 -15.5t86.5 -41t62.5 -57.5t42.5 -64q-16 135 -78 257t-172 208l-135 -144l-68 70l119 129q-53 29 -118 48t-138 26v108q88 -8 176 -31.5t160 -64.5l116 127l72 -72l-104 -110q141 -111 228 -298.5t87 -457.5 q0 -272 -115.5 -424t-333.5 -152q-102 0 -185 36t-141.5 99.5t-90 151.5t-31.5 191zM231 453q0 -74 24 -138.5t64.5 -110.5t95 -73t115.5 -27t116.5 27t95.5 73t63.5 109.5t23.5 137.5t-22.5 139t-62 112.5t-95.5 75t-119 27.5q-61 0 -116.5 -26.5t-95 -73t-63.5 -112 t-24 -140.5z"/>
<glyph unicode="ñ" horiz-adv-x="1085" d="M154 0v1047h143v-115q49 72 117.5 105.5t152.5 33.5q193 0 284 -115.5t91 -375.5v-580h-143v639q0 166 -70 234.5t-174 68.5q-55 0 -102 -14.5t-82 -49t-54.5 -92t-19.5 -143.5v-643h-143zM209 1241q0 109 46 167t145 58q55 0 100 -16t85 -35.5t77 -36t75 -16.5 q39 0 66 24.5t31 71.5h78q0 -109 -45.5 -167t-143.5 -58q-55 0 -100 16.5t-85 35t-77 34.5t-76 16t-65.5 -23.5t-30.5 -70.5h-80z"/>
<glyph unicode="ò" horiz-adv-x="1060" d="M82 522q0 129 32.5 230.5t91 172t141.5 108.5t183 38t183.5 -37t141.5 -106.5t91 -171t33 -232.5q0 -129 -33 -231.5t-91 -173t-141 -107.5t-184 -37q-100 0 -183 37t-141.5 106.5t-91 171t-32.5 232.5zM228 1499h219l291 -319h-146zM231 522q0 -197 76 -307.5 t223 -110.5q143 0 221 111t78 309q0 197 -75.5 307.5t-223.5 110.5q-147 0 -223 -107.5t-76 -312.5z"/>
<glyph unicode="ó" horiz-adv-x="1060" d="M82 522q0 129 32.5 230.5t91 172t141.5 108.5t183 38t183.5 -37t141.5 -106.5t91 -171t33 -232.5q0 -129 -33 -231.5t-91 -173t-141 -107.5t-184 -37q-100 0 -183 37t-141.5 106.5t-91 171t-32.5 232.5zM231 522q0 -197 76 -307.5t223 -110.5q143 0 221 111t78 309 q0 197 -75.5 307.5t-223.5 110.5q-147 0 -223 -107.5t-76 -312.5zM330 1180l291 319h219l-365 -319h-145z"/>
<glyph unicode="ô" horiz-adv-x="1060" d="M82 522q0 129 32.5 230.5t91 172t141.5 108.5t183 38t183.5 -37t141.5 -106.5t91 -171t33 -232.5q0 -129 -33 -231.5t-91 -173t-141 -107.5t-184 -37q-100 0 -183 37t-141.5 106.5t-91 171t-32.5 232.5zM160 1180l288 319h164l289 -319h-133l-238 206l-237 -206h-133z M231 522q0 -197 76 -307.5t223 -110.5q143 0 221 111t78 309q0 197 -75.5 307.5t-223.5 110.5q-147 0 -223 -107.5t-76 -312.5z"/>
<glyph unicode="õ" horiz-adv-x="1060" d="M82 522q0 129 32.5 230.5t91 172t141.5 108.5t183 38t183.5 -37t141.5 -106.5t91 -171t33 -232.5q0 -129 -33 -231.5t-91 -173t-141 -107.5t-184 -37q-100 0 -183 37t-141.5 106.5t-91 171t-32.5 232.5zM180 1241q0 109 46 167t145 58q55 0 100 -16t85 -35.5t77 -36 t75 -16.5q39 0 66 24.5t31 71.5h78q0 -109 -45.5 -167t-143.5 -58q-55 0 -100 16.5t-85 35t-77 34.5t-76 16t-65.5 -23.5t-30.5 -70.5h-80zM231 522q0 -197 76 -307.5t223 -110.5q143 0 221 111t78 309q0 197 -75.5 307.5t-223.5 110.5q-147 0 -223 -107.5t-76 -312.5z"/>
<glyph unicode="ö" horiz-adv-x="1060" d="M82 522q0 129 32.5 230.5t91 172t141.5 108.5t183 38t183.5 -37t141.5 -106.5t91 -171t33 -232.5q0 -129 -33 -231.5t-91 -173t-141 -107.5t-184 -37q-100 0 -183 37t-141.5 106.5t-91 171t-32.5 232.5zM231 522q0 -197 76 -307.5t223 -110.5q143 0 221 111t78 309 q0 197 -75.5 307.5t-223.5 110.5q-147 0 -223 -107.5t-76 -312.5zM264 1337q0 41 27.5 69t68.5 28t69 -28t28 -69t-28 -68.5t-69 -27.5t-68.5 27.5t-27.5 68.5zM604 1337q0 41 27.5 69t68.5 28t69 -28t28 -69t-28 -68.5t-69 -27.5t-68.5 27.5t-27.5 68.5z"/>
<glyph unicode="÷" d="M164 631v139h962v-139h-962zM541 274q0 41 27.5 71t70.5 30q45 0 74.5 -30t29.5 -71t-29.5 -67.5t-74.5 -26.5q-43 0 -70.5 26.5t-27.5 67.5zM541 1124q0 39 27.5 70t70.5 31q45 0 74.5 -31t29.5 -70q0 -41 -29.5 -69.5t-74.5 -28.5q-43 0 -70.5 28.5t-27.5 69.5z"/>
<glyph unicode="ø" horiz-adv-x="1060" d="M82 -25l111 160q-111 141 -111 387q0 129 32.5 230.5t92 172t142.5 108.5t183 38q145 0 254 -78l56 78h135l-109 -158q53 -70 82 -168t29 -221q0 -129 -32 -231.5t-90 -173t-141 -107.5t-184 -37q-154 0 -260 80l-57 -80h-133zM231 522q0 -160 50 -260l428 619 q-74 61 -177 61q-147 0 -224 -107.5t-77 -312.5zM350 168q73 -64 182 -64q143 0 220 111t77 309q0 156 -51 262z"/>
<glyph unicode="ù" horiz-adv-x="1085" d="M143 463v584h144v-639q0 -164 68.5 -234t172.5 -70q55 0 102.5 14.5t83.5 49.5t55 92t19 143v644h144v-1047h-144v100q-55 -72 -116.5 -98.5t-143.5 -26.5q-203 0 -294 115t-91 373zM244 1499h219l291 -319h-146z"/>
<glyph unicode="ú" horiz-adv-x="1085" d="M143 463v584h144v-639q0 -164 68.5 -234t172.5 -70q55 0 102.5 14.5t83.5 49.5t55 92t19 143v644h144v-1047h-144v100q-55 -72 -116.5 -98.5t-143.5 -26.5q-203 0 -294 115t-91 373zM309 1180l291 319h219l-365 -319h-145z"/>
<glyph unicode="û" horiz-adv-x="1085" d="M143 463v584h144v-639q0 -164 68.5 -234t172.5 -70q55 0 102.5 14.5t83.5 49.5t55 92t19 143v644h144v-1047h-144v100q-55 -72 -116.5 -98.5t-143.5 -26.5q-203 0 -294 115t-91 373zM160 1180l288 319h164l289 -319h-133l-238 206l-237 -206h-133z"/>
<glyph unicode="ü" horiz-adv-x="1085" d="M143 463v584h144v-639q0 -164 68.5 -234t172.5 -70q55 0 102.5 14.5t83.5 49.5t55 92t19 143v644h144v-1047h-144v100q-55 -72 -116.5 -98.5t-143.5 -26.5q-203 0 -294 115t-91 373zM264 1337q0 41 27.5 69t68.5 28t69 -28t28 -69t-28 -68.5t-69 -27.5t-68.5 27.5 t-27.5 68.5zM604 1337q0 41 27.5 69t68.5 28t69 -28t28 -69t-28 -68.5t-69 -27.5t-68.5 27.5t-27.5 68.5z"/>
<glyph unicode="ý" horiz-adv-x="985" d="M31 1047h145l299 -844l305 844h154l-535 -1444h-141l156 430zM227 1180l291 319h219l-365 -319h-145z"/>
<glyph unicode="þ" horiz-adv-x="1097" d="M154 -416v1805l143 69v-506q53 47 116.5 83t170.5 36q100 0 180 -39t136 -110.5t86 -173t30 -224.5q0 -131 -32 -232.5t-89 -172t-137 -107.5t-174 -37q-111 0 -176.5 39t-110.5 92v-450zM297 266q53 -70 118.5 -116t151.5 -46q145 0 222 110t77 310q0 193 -79.5 305.5 t-219.5 112.5q-86 0 -156.5 -42t-113.5 -120v-514z"/>
<glyph unicode="ÿ" horiz-adv-x="985" d="M31 1047h145l299 -844l305 844h154l-535 -1444h-141l156 430zM209 1337q0 41 27.5 69t68.5 28t69 -28t28 -69t-28 -68.5t-69 -27.5t-68.5 27.5t-27.5 68.5zM549 1337q0 41 27.5 69t68.5 28t69 -28t28 -69t-28 -68.5t-69 -27.5t-68.5 27.5t-27.5 68.5z"/>
<glyph unicode="Œ" horiz-adv-x="1800" d="M113 717q0 135 30.5 268t101 237.5t183.5 170t279 65.5q55 0 98 -6t84 -18h753v-138h-557v-487h379v-135h-379v-537h603v-137h-797q-84 -25 -184 -25q-166 0 -280 65.5t-183.5 171t-100 238t-30.5 267.5zM262 717q0 -119 23.5 -229.5t76 -195.5t137.5 -136.5t208 -51.5 q70 0 127 18.5t108 51.5v1086q-100 70 -235 69q-123 0 -208 -55t-137.5 -143.5t-76 -198t-23.5 -215.5z"/>
<glyph unicode="œ" horiz-adv-x="1769" d="M82 522q0 129 31.5 230.5t91 172t142.5 108.5t185 38q133 0 224.5 -57.5t150.5 -159.5q59 109 156.5 163t218.5 54q84 0 160 -29.5t132 -91t90 -158t34 -227.5v-40.5t-4 -59.5h-713q18 -160 96 -258t211 -98q59 0 118.5 18t119.5 63l78 -96q-59 -49 -143.5 -84 t-178.5 -35q-129 0 -222 63.5t-149 166.5q-55 -104 -149 -167t-230 -63q-205 0 -327.5 142.5t-122.5 404.5zM231 522q0 -197 77 -307.5t224 -110.5q141 0 219 111t78 309q0 197 -75.5 307.5t-221.5 110.5q-147 0 -224 -107.5t-77 -312.5zM977 594h575q0 106 -26.5 174 t-66.5 106.5t-87 53t-90 14.5q-125 0 -210 -84t-95 -264z"/>
<glyph unicode="Ÿ" horiz-adv-x="1200" d="M61 1434h158l381 -738l391 738h148l-465 -865v-569h-144v563zM334 1726q0 41 27.5 69t68.5 28t69 -28t28 -69t-28 -68.5t-69 -27.5t-68.5 27.5t-27.5 68.5zM674 1726q0 41 27.5 69t68.5 28t69 -28t28 -69t-28 -68.5t-69 -27.5t-68.5 27.5t-27.5 68.5z"/>
<glyph unicode="ˆ" horiz-adv-x="624" d="M-55 1180l288 319h164l289 -319h-133l-238 206l-237 -206h-133z"/>
<glyph unicode="˜" horiz-adv-x="624" d="M-39 1241q0 109 46 167t145 58q55 0 100 -16t85 -35.5t77 -36t75 -16.5q39 0 66 24.5t31 71.5h78q0 -109 -45.5 -167t-143.5 -58q-55 0 -100 16.5t-85 35t-77 34.5t-76 16t-65.5 -23.5t-30.5 -70.5h-80z"/>
<glyph unicode=" " horiz-adv-x="944"/>
<glyph unicode=" " horiz-adv-x="1888"/>
<glyph unicode=" " horiz-adv-x="944"/>
<glyph unicode=" " horiz-adv-x="1888"/>
<glyph unicode=" " horiz-adv-x="629"/>
<glyph unicode=" " horiz-adv-x="472"/>
<glyph unicode=" " horiz-adv-x="314"/>
<glyph unicode=" " horiz-adv-x="314"/>
<glyph unicode=" " horiz-adv-x="236"/>
<glyph unicode=" " horiz-adv-x="377"/>
<glyph unicode=" " horiz-adv-x="104"/>
<glyph unicode="‐" horiz-adv-x="763" d="M154 541v139h456v-139h-456z"/>
<glyph unicode="‑" horiz-adv-x="763" d="M154 541v139h456v-139h-456z"/>
<glyph unicode="‒" horiz-adv-x="763" d="M154 541v139h456v-139h-456z"/>
<glyph unicode="–" horiz-adv-x="1013" d="M102 526v123h809v-123h-809z"/>
<glyph unicode="—" horiz-adv-x="1177" d="M-10 526v123h1198v-123h-1198z"/>
<glyph unicode="‘" horiz-adv-x="401" d="M57 1118q0 117 53.5 204t133.5 136l39 -10q-14 -12 -32 -33.5t-33 -52.5t-26.5 -70t-11.5 -84q66 0 108 -35.5t42 -91.5q0 -63 -37 -99t-88 -36q-27 0 -53.5 10.5t-47 31t-34 53t-13.5 77.5z"/>
<glyph unicode="’" horiz-adv-x="401" d="M72 1323q0 63 36.5 99t88.5 36q27 0 53 -10t46.5 -30.5t34 -53.5t13.5 -78q0 -117 -53 -204t-133 -136l-39 10q14 12 31.5 34t33 52.5t26.5 69.5t11 84q-66 0 -107.5 36t-41.5 91z"/>
<glyph unicode="‚" horiz-adv-x="401" d="M72 88q0 63 36.5 99t88.5 36q27 0 53 -10t46.5 -30.5t34 -53.5t13.5 -78q0 -117 -53 -204t-133 -136l-39 10q14 12 31.5 34t33 52.5t26.5 69.5t11 84q-66 0 -107.5 36t-41.5 91z"/>
<glyph unicode="“" horiz-adv-x="802" d="M57 1118q0 117 53.5 204t133.5 136l39 -10q-14 -12 -32 -33.5t-33 -52.5t-26.5 -70t-11.5 -84q66 0 108 -35.5t42 -91.5q0 -63 -37 -99t-88 -36q-27 0 -53.5 10.5t-47 31t-34 53t-13.5 77.5zM459 1118q0 117 53 204t133 136l39 -10q-14 -12 -31.5 -33.5t-33 -52.5 t-26.5 -70t-11 -84q66 0 107.5 -35.5t41.5 -91.5q0 -63 -37 -99t-88 -36q-27 0 -53.5 10.5t-47 31t-33.5 53t-13 77.5z"/>
<glyph unicode="”" horiz-adv-x="802" d="M72 1323q0 63 36.5 99t88.5 36q27 0 53 -10t46.5 -30.5t34 -53.5t13.5 -78q0 -117 -53 -204t-133 -136l-39 10q14 12 31.5 34t33 52.5t26.5 69.5t11 84q-66 0 -107.5 36t-41.5 91zM473 1323q0 63 37 99t88 36q27 0 53.5 -10t47 -30.5t33.5 -53.5t13 -78q0 -117 -53 -204 t-133 -136l-39 10q14 12 31.5 34t33 52.5t27 69.5t11.5 84q-66 0 -108 36t-42 91z"/>
<glyph unicode="„" horiz-adv-x="802" d="M72 88q0 63 36.5 99t88.5 36q27 0 53 -10t46.5 -30.5t34 -53.5t13.5 -78q0 -117 -53 -204t-133 -136l-39 10q14 12 31.5 34t33 52.5t26.5 69.5t11 84q-66 0 -107.5 36t-41.5 91zM473 88q0 63 37 99t88 36q27 0 53.5 -10t47 -30.5t33.5 -53.5t13 -78q0 -117 -53 -204 t-133 -136l-39 10q14 12 31.5 34t33 52.5t27 69.5t11.5 84q-66 0 -108 36t-42 91z"/>
<glyph unicode="•" horiz-adv-x="790" d="M123 717q0 55 20.5 103t56.5 84t85 56.5t108 20.5q57 0 107.5 -20.5t87.5 -56.5t58.5 -84t21.5 -103t-21.5 -102.5t-58.5 -82t-87.5 -55t-107.5 -20.5q-59 0 -108 20.5t-85 55t-56.5 82t-20.5 102.5z"/>
<glyph unicode="…" horiz-adv-x="1617" d="M184 53q0 35 23.5 59.5t58.5 24.5q37 0 62.5 -24.5t25.5 -59.5q0 -31 -25.5 -54.5t-62.5 -23.5q-35 0 -58.5 24t-23.5 54zM723 53q0 35 24.5 59.5t59.5 24.5q37 0 62.5 -24.5t25.5 -59.5q0 -31 -25.5 -54.5t-62.5 -23.5q-35 0 -59.5 24t-24.5 54zM1264 53q0 35 23.5 59.5 t58.5 24.5q37 0 62.5 -24.5t25.5 -59.5q0 -31 -25.5 -54.5t-62.5 -23.5q-35 0 -58.5 24t-23.5 54z"/>
<glyph unicode=" " horiz-adv-x="377"/>
<glyph unicode="‹" horiz-adv-x="563" d="M61 524l312 523h159l-311 -523l311 -524h-159z"/>
<glyph unicode="›" horiz-adv-x="563" d="M31 0l311 524l-311 523h159l312 -523l-312 -524h-159z"/>
<glyph unicode=" " horiz-adv-x="472"/>
<glyph unicode="€" horiz-adv-x="1329" d="M57 475l56 119h77q-4 29 -4 58.5v60.5v49t2 49h-131l56 119h92q18 104 58 199.5t105.5 168t157.5 116.5t217 44q94 0 179.5 -24.5t156.5 -71.5l-55 -131q-51 43 -123 68.5t-162 25.5t-155.5 -32.5t-110.5 -87t-71.5 -126t-41.5 -149.5h539l-49 -119h-506q-4 -35 -4 -68.5 v-64.5v-41t4 -43h416l-49 -119h-349q14 -70 43 -136.5t72 -117.5t102.5 -81.5t137.5 -30.5q100 0 174 40.5t123 106.5l114 -72q-25 -39 -62.5 -75.5t-88.5 -66.5t-115.5 -48.5t-140.5 -18.5q-121 0 -210 38t-151.5 105.5t-99.5 159t-55 197.5h-148z"/>
<glyph unicode="™" horiz-adv-x="1548" d="M41 1327v107h584v-107h-234v-758h-115v758h-235zM709 569v865h92l256 -617l256 617h92v-865h-115v510l-231 -542l-236 546v-514h-114z"/>
<glyph unicode="◼" horiz-adv-x="1044" d="M0 0v1044h1044v-1044h-1044z"/>
</font>
</defs>
</svg>
